Black Gold

Black Gold (2008)

Action, Drama, Educational

Full description

Black Gold - Season 2

Size 2.927 GB   2 seeders     Added 2013-01-02 02:48:26

Stream torrent
Starting‥ You need BitLord! Get it from BitLord.com
To download or stream you need BitLord. Visit them at BitLord.com
[img]image[/img]

[img]image[/img]

Black Gold is a reality-documentary television series that chronicles three oil 
drilling rigs in Andrews County, Texas, 30 miles northwest of Odessa. It is partly 
produced by Thom Beers, creator of Deadliest Catch and Ice Road Truckers. The 
Black Gold theme song is sung by country music star Trace Adkins. The title 
"Black Gold" comes from a slang term for oil.

Format : AVI
Format/Info : Audio Video Interleave
File size : 347 MiB
Duration : 43mn 59s
Overall bit rate mode : Variable
Overall bit rate : 1 103 Kbps
Writing application : VirtualDubMod 1.5.10.2 (build 2540/release)
Writing library : VirtualDubMod build 2540/release

Video
ID : 0
Format : MPEG-4 Visual
Format profile : Advanced Simple@L5
Format settings, BVOP : 2
Format settings, QPel : No
Format settings, GMC : No warppoints
Format settings, Matrix : Default (H.263)
Muxing mode : Packed bitstream
Codec ID : XVID
Codec ID/Hint : XviD
Duration : 43mn 59s
Bit rate : 968 Kbps
Width : 576 pixels
Height : 432 pixels
Display aspect ratio : 4:3
Frame rate : 29.970 fps
Color space : YUV
Chroma subsampling : 4:2:0
Bit depth : 8 bits
Scan type : Progressive
Compression mode : Lossy
Bits/(Pixel*Frame) : 0.130
Stream size : 305 MiB (88%)
Writing library : XviD 1.2.1 (UTC 2008-12-04)

Audio
ID : 1
Format : MPEG Audio
Format version : Version 1
Format profile : Layer 3
Mode : Joint stereo
Mode extension : MS Stereo
Codec ID : 55
Codec ID/Hint : MP3
Duration : 43mn 59s
Bit rate mode : Variable
Bit rate : 121 Kbps
Channel(s) : 2 channels
Sampling rate : 48.0 KHz
Compression mode : Lossy
Stream size : 38.0 MiB (11%)
Alignment : Aligned on interleaves
Interleave, duration : 24 ms (0.72 video frame)
Interleave, preload duration : 524 ms
Black.Gold.S02E01.DSR.XViD-CAST.avi 363.944 MB
Black.Gold.S02E02.DSR.XViD-CRiMSON.avi 366.309 MB
Black.Gold.S02E03.DSR.XViD-CRiMSON.avi 366.141 MB
Gathering some info...

Register and log in Isohunt and see no captcha anymore!

4000 symbols left
Hash 24B499B45A7CF2B15B7DF80315D4EC8A1190B743

Related torrents for "Black Gold - Season 2"

Torrent search:

season 02