imdb
rating

3.5
Crash Site

Crash Site (2011)

Drama

Full description
quality   dvdrip x264 hd bd

Crash Site 2011 DVDRip English [Accipiter]

Size 727.135 MB   3 seeders     Added 2013-01-02 04:53:28

Stream torrent
Starting‥ You need BitLord! Get it from BitLord.com
To download or stream you need BitLord. Visit them at BitLord.com

Release info:

General
Format                                   : Matroska
Format version                           : Version 2
File size                                : 693 MiB
Duration                                 : 1h 26mn
Overall bit rate mode                    : Variable
Overall bit rate                         : 1 121 Kbps

Video
ID                                       : 1
Format                                   : MPEG-4 Visual
Format profile                           : Advanced Simple@L5
Format settings, BVOP                    : Yes
Format settings, QPel                    : No
Format settings, GMC                     : No warppoints
Format settings, Matrix                  : Default (H.263)
Codec ID                                 : V_MS/VFW/FOURCC / XVID
Codec ID/Hint                            : XviD
Duration                                 : 1h 26mn
Bit rate                                 : 971 Kbps
Width                                    : 624 pixels
Height                                   : 352 pixels
Display aspect ratio                     : 16:9
Frame rate mode                          : Constant
Frame rate                               : 25.000 fps
Color space                              : YUV
Chroma subsampling                       : 4:2:0
Bit depth                                : 8 bits
Scan type                                : Progressive
Compression mode                         : Lossy
Bits/(Pixel*Frame)                       : 0.177
Stream size                              : 601 MiB (87%)
Language                                 : English
Default                                  : Yes
Forced                                   : No

Audio
ID                                       : 2
Format                                   : MPEG Audio
Format version                           : Version 1
Format profile                           : Layer 3
Mode                                     : Joint stereo
Mode extension                           : MS Stereo
Muxing mode                              : Header stripping
Codec ID                                 : A_MPEG/L3
Codec ID/Hint                            : MP3
Duration                                 : 1h 26mn
Bit rate mode                            : Variable
Bit rate                                 : 127 Kbps
Nominal bit rate                         : 142 Kbps
Channel(s)                               : 2 channels
Sampling rate                            : 48.0 KHz
Compression mode                         : Lossy
Stream size                              : 78.6 MiB (11%)
Language                                 : English
Default                                  : Yes
Forced                                   : No


Source:
credit to original movie ripper DOSE (Thanks)

IMDB Info:

A Jeep crash sends a vacationing couple on a creepy trip back to safety.

Director: Jason Bourque
Writer: Joseph Nasser
Stars: Charisma Carpenter, Sebastian Spence and Katie Findlay

Genres: Drama | Horror | Thriller
 
http://www.imdb.com/title/tt1718755/

Screen Shot:
 
image 
image 
image 
image 
image 
image		
Crash Site 2011 DVDRip English [Accipiter].mkv 727.135 MB
Torrent Downloaded From Digtorrent.org.txt 346 B
Torrent downloaded from souravfile torrents on BTScene.eu.txt 69 B
Gathering some info...

Register and log in Isohunt and see no captcha anymore!

4000 symbols left
Hash 0C613AAF8AFDE30D4F3481C09214680930A33548

Related torrents for "Crash Site 2011 DVDRip English [Accipiter]"

Torrent search:

dvdrip english 2011