imdb
rating

3.5
Bro'

Bro' (2012)

Action, Adventure, Crime, Drama

Full description
quality   dvdrip hd web-dl x264 fullhd bd

Bro' 2012 DVDRip English [Accipiter]

Size 731.804 MB   10 seeders     Added 2013-01-02 04:53:32

Stream torrent
Starting‥ You need BitLord! Get it from BitLord.com
To download or stream you need BitLord. Visit them at BitLord.com
Release info:

General
Format                                   : Matroska
Format version                           : Version 2
File size                                : 698 MiB
Duration                                 : 1h 29mn
Overall bit rate                         : 1 091 Kbps


Video
ID                                       : 1
Format                                   : MPEG-4 Visual
Format profile                           : Simple@L3
Format settings, BVOP                    : No
Format settings, QPel                    : No
Format settings, GMC                     : No warppoints
Format settings, Matrix                  : Default (H.263)
Codec ID                                 : V_MS/VFW/FOURCC / XVID
Codec ID/Hint                            : XviD
Duration                                 : 1h 29mn
Bit rate                                 : 942 Kbps
Width                                    : 624 pixels
Height                                   : 352 pixels
Display aspect ratio                     : 16:9
Frame rate mode                          : Constant
Frame rate                               : 23.976 fps
Color space                              : YUV
Chroma subsampling                       : 4:2:0
Bit depth                                : 8 bits
Scan type                                : Progressive
Compression mode                         : Lossy
Bits/(Pixel*Frame)                       : 0.179
Stream size                              : 602 MiB (86%)
Language                                 : English
Default                                  : Yes
Forced                                   : No

Audio
ID                                       : 2
Format                                   : MPEG Audio
Format version                           : Version 1
Format profile                           : Layer 3
Mode                                     : Joint stereo
Mode extension                           : MS Stereo
Muxing mode                              : Header stripping
Codec ID                                 : A_MPEG/L3
Codec ID/Hint                            : MP3
Duration                                 : 1h 29mn
Bit rate mode                            : Constant
Bit rate                                 : 128 Kbps
Channel(s)                               : 2 channels
Sampling rate                            : 48.0 KHz
Compression mode                         : Lossy
Stream size                              : 81.9 MiB (12%)
Language                                 : English
Default                                  : Yes
Forced                                   : No



Source:
credit to original movie ripper PTPOWER (Thanks)

IMDB Info:

A college student gets involved in the wild partying lifestyle of the professional freestyle motocross world.

Director: Nick Parada
Writers: Kim MacKenzie (screenplay), Nick Parada (screenplay)
Stars: D.J. Bennett, Jakob Bokulich and Mario Castillo

Genres: Action | Crime | Drama
 
http://www.imdb.com/title/tt1690540/

Screen Shot:
 
image 
image 
image 
image 
image 
image 
image		
Bro' 2012 DVDRip English [Accipiter].mkv 731.803 MB
Torrent Downloaded From Digtorrent.org.txt 346 B
Torrent downloaded from souravfile torrents on BTScene.eu.txt 69 B
Gathering some info...

Register and log in Isohunt and see no captcha anymore!

4000 symbols left
Hash 0FD154153CE60D817A1A23ADF912166A28BB8FE5

Related torrents for "Bro' 2012 DVDRip English [Accipiter]"

Torrent search:

dvdrip english 2012