Sword Art Online (Complete Ep 1-25) 480p [Cursator]

Size 1.368 GB   62 seeders     Added 2013-01-02 15:43:58

Stream torrent
Starting‥ You need BitLord! Get it from BitLord.com
To download or stream you need BitLord. Visit them at BitLord.com
[center] All the episode of Sword art online (Ep 1-25) at 480p video quality

----------------------------------------------------------------------------------

IMDB
----------------------------------------------------------------------------------

[url] http://www.imdb.com/title/tt2256334/ [/url]

----------------------------------------------------------------------------------

[size=48][color=#3708E3][b]Cover[/size][/color][/b]
----------------------------------------------------------------------------------

[img]image[/img]


-----------------------------------------------------------------------------------

[img]image[/img]
-----------------------------------------------------------------------------------

[img]image[/img]
---------------------------------------

[size=13]Torrent Statistics[/size]

[url=http://www.torrent-stats.info][img]image[/img][/url]
-----------------------------------------

ID                                       : 1
Format                                   : AVC
Format/Info                              : Advanced Video Codec
Format profile                           : Baseline@L3.0
Format settings, CABAC                   : No
Format settings, ReFrames                : 2 frames
Codec ID                                 : avc1
Codec ID/Info                            : Advanced Video Coding
Duration                                 : 24mn 30s
Bit rate mode                            : Variable
Bit rate                                 : 342 Kbps
Width                                    : 640 pixels
Height                                   : 352 pixels
Display aspect ratio                     : 16:9
Frame rate mode                          : Variable
Frame rate                               : 29.970 fps
Minimum frame rate                       : 29.412 fps
Maximum frame rate                       : 30.303 fps
Color space                              : YUV
Chroma subsampling                       : 4:2:0
Bit depth                                : 8 bits
Scan type                                : Progressive
Bits/(Pixel*Frame)                       : 0.051
Stream size                              : 59.9 MiB (67%)
Writing library                          : x264 core 115


[img]image[/img]
----------------------------------


ID                                       : 2
Format                                   : AAC
Format/Info                              : Advanced Audio Codec
Format profile                           : LC
Codec ID                                 : 40
Duration                                 : 24mn 30s
Bit rate mode                            : Variable
Bit rate                                 : 160 Kbps
Maximum bit rate                         : 197 Kbps
Channel(s)                               : 2 channels
Channel positions                        : Front: L R
Sampling rate                            : 48.0 KHz
Compression mode                         : Lossy
Stream size                              : 28.0 MiB (32%)
Language                                 : English

----------------------------------------------------------------------------------

[b][size=48][color=#3708E3]Story[/b][/size][/color]
----------------------------------------------------------------------------------

[size=13]In the year 2022, the Virtual reality Massive Multiplayer Online Role-Playing Game (VRMMORPG) Sword Art Online (SAO) is released. With the Nerve Gear, a VR Helmet that stimulates the user\'s five senses via their brain, players can experience and control their in-game characters with their minds. But an unexpected event occurs on November 6, 2022 when Akihiko Kayaba, the creator of SAO, prevents the players from logging out. Akihiko issues them a challenge; if they wish to be free and log out of the game, they must reach the 100th floor of the game\'s tower and defeat the final boss. However, if their avatars die in game, their bodies will also die in the real world. As the game\'s 10,000 players try to accept their new deadly predicament, Kirito, a skilled player who tested the beta version of the game, is determined to reach the 100th floor and attain freedom. As he befriends other players along the way, including Asuna, who becomes his partner, in-game wife, and real world girlfriend. Kirito faces many obstacles and eventually discovers the true purpose of SAO.
After escaping SAO, Kirito, for a series of circumstances, takes part in other VRMMO games.[/size]


----------------------------------------------------------------------------------

[img]image[/img]
----------------------------------------------------------------------------------

   
[img]image[/img]

   
[img]image[/img]

   
[img]image[/img]

   
[img]image[/img]

   
[img]image[/img]

----------------------------------------------------------------------------------

[size=48][color=#3708E3][b]Facebook[/size][/color][/b]
----------------------------------------------------------------------------------

                                                                             [url=http://facebook.com/cursator] [img]image[/img][/url]
                                                                              [size=36]Find Me on Facebook :)[/size][/b]

or 

[b][size=36]Cursator@ymail.com[/size][/b]
[/center]
							
				
				
Sword Art Online/Cover/Sword Art Online Ep (1-19) [Cursator].jpg 1.256 MB
Sword Art Online/Screenshots/Sao 1.png 151.957 KB
Sword Art Online/Screenshots/Sao 2.png 249.977 KB
Gathering some info...

Register and log in Isohunt and see no captcha anymore!

4000 symbols left
Hash e9fb583abcfc7cbc076019988cc7013e605af1d0