The Transporter 2002 720p BRRip XviD AC3-LEGi0N

Size 9.867 GB   0 seeders     Added 2013-01-02 20:43:16

Stream torrent
Starting‚Ä• You need BitLord! Get it from BitLord.com
To download or stream you need BitLord. Visit them at BitLord.com
[size=200]The.Transporter.Trilogy.720p.BBRip.XviD.AC3-LEGi0N[/size]


[b]General
Format: AVI
File size: 3.03 GiB
Duration: 1h 32mn
Overall bit rate: 4 708 Kbps
IMDb Rating: 6.6/10 48,807 votes
Genre: Action | Crime | Thriller
Release Date: 11 October 2002 
Video
Format: MPEG-4 Visual
Format settings, BVOP: Yes
Format settings, QPel: No
Format settings, GMC: No warppoints
Format settings, Matrix: Default (H.263)
Muxing mode: Packed bitstream
Codec ID: XVID
Bit rate: 4 250 Kbps
Width: 1 280 pixels
Height: 544 pixels
Display aspect ratio: 2.35
Frame rate: 23.976 fps
Resolution: 24 bits
Colorimetry: 4:2:0
Scan type: Progressive
Bits/(Pixel*Frame): 0.255
Stream size: 2.74 GiB (90%) 
Audio
Format: AC-3
Bit rate mode: Constant
Bit rate: 448 Kbps
Channel(s): 6 channels
Sampling rate: 48.0 KHz
Stream size: 295 MiB (10%) 






Transporter 2 2005 720p BRRip XviD AC3-LEGi0N


General
Format: AVI
File size: 2.84 GiB
Duration: 1h 27mn
Overall bit rate: 4 631 Kbps
IMDb Rating: 6.1/10 37,785 votes
Genre: Action | Crime | Thriller
Release Date: 2 September 2005 
Video
Format: MPEG-4 Visual
Format settings, BVOP: Yes
Format settings, QPel: No
Format settings, GMC: No warppoints
Format settings, Matrix: Default (H.263)
Muxing mode: Packed bitstream
Codec ID: XVID
Bit rate: 4 173 Kbps
Width: 1 280 pixels
Height: 544 pixels
Display aspect ratio: 2.35
Frame rate: 23.976 fps
Resolution: 24 bits
Colorimetry: 4:2:0
Scan type: Progressive
Bits/(Pixel*Frame): 0.250
Stream size: 2.55 GiB (90%) 
Audio
Format: AC-3
Bit rate mode: Constant
Bit rate: 448 Kbps
Channel(s): 6 channels
Sampling rate: 48.0 KHz
Stream size: 281 MiB (10%) 






Transporter 3 2008 720p BRRip XviD AC3-LEGi0N


General
Format: AVI
File size: 3.32 GiB
Duration: 1h 43mn
Overall bit rate: 4 576 Kbps
IMDb Rating: 5.9/10 28,948 votes
Genre: Action | Adventure | Crime | Thriller
Release Date: 26 November 2008 
Video
Format: MPEG-4 Visual
Format settings, BVOP: Yes
Format settings, QPel: No
Format settings, GMC: No warppoints
Format settings, Matrix: Default (H.263)
Muxing mode: Packed bitstream
Codec ID: XVID
Bit rate: 4 118 Kbps
Width: 1 280 pixels
Height: 544 pixels
Display aspect ratio: 2.35
Frame rate: 23.976 fps
Resolution: 24 bits
Colorimetry: 4:2:0
Scan type: Progressive
Bits/(Pixel*Frame): 0.247
Stream size: 2.99 GiB (90%) 
Audio
Format: AC-3
Bit rate mode: Constant
Bit rate: 448 Kbps
Channel(s): 6 channels
Sampling rate: 48.0 KHz
Stream size: 333 MiB (10%[/b]) 
Transporter.Trilogy.720p.BBRip.XviD.AC3-LEGi0N/The.Transporter.2002.720p.BRRip.XviD.AC3-LEGi0N/The.Transporter.2002.720p.BRRip.XviD.AC3-LEGi0N.avi 3.254 GB
Transporter.Trilogy.720p.BBRip.XviD.AC3-LEGi0N/Transporter.2.2005.720p.BRRip.XviD.AC3-LEGi0N/The.Transporter.2.2005.720p.BRRip.XviD.AC3-LEGi0N.avi 3.044 GB
Transporter.Trilogy.720p.BBRip.XviD.AC3-LEGi0N/Transporter.3.2008.720p.BRRip.XviD.AC3-LEGi0N/Transporter.3.2008.720p.BRRip.XviD.AC3-LEGi0N.avi 3.568 GB
Gathering some info...

Register and log in Isohunt and see no captcha anymore!

4000 symbols left
Hash c955a408d59505ac972218753b1675580becd7f6

We have tons of cool stuff like this:

Torrent search:

2002 hd bd