imdb
rating

4.8
Crawlspace

Crawlspace (2012)

Horror, Mystery, Science Fiction, Thriller

Full description

Crawlspace.2012.DVDRip.H264.AC3.HS(Happy New Year)

Size 777.889 MB   126 seeders     Added 2013-01-03 07:20:38

Stream torrent
Starting‥ You need BitLord! Get it from BitLord.com
To download or stream you need BitLord. Visit them at BitLord.com
 Crawlspace 2012 DVDRip H264 AC3 HS
http://www.imdb.com/title/tt1890375/
Source -- DVDR(A friend)
Format                                   : Matroska
Format version                           : Version 2
File size                                : 742 MiB
Duration                                 : 1h 26mn
Video
ID                                       : 1
Format                                   : AVC
Format/Info                              : Advanced Video Codec
Format profile                           : High@L3.0
Format settings, CABAC                   : Yes
Format settings, ReFrames                : 4 frames
Muxing mode                              : Header stripping
Codec ID                                 : V_MPEG4/ISO/AVC
Duration                                 : 1h 26mn
Bit rate                                 : 785 Kbps
Width                                    : 720 pixels
Height                                   : 306 pixels
Display aspect ratio                     : 2.35:1
Frame rate mode                          : Constant
Frame rate                               : 24.000 fps
Color space                              : YUV
Chroma subsampling                       : 4:2:0
Bit depth                                : 8 bits
Scan type                                : Progressive
Bits/(Pixel*Frame)                       : 0.148
Stream size                              : 488 MiB (66%)
Audio
ID                                       : 2
Format                                   : AC-3
Format/Info                              : Audio Coding 3
Codec ID                                 : A_AC3
Duration                                 : 1h 26mn
Bit rate mode                            : Constant
Bit rate                                 : 384 Kbps
Channel(s)                               : 6 channels
Channel positions                        : Front: L C R, Side: L R, LFE
Sampling rate                            : 44.1 KHz
Bit depth                                : 16 bits
Compression mode                         : Lossy
Stream size                              : 239 MiB (32%)
Default                                  : Yes
Forced                                   : No
Crawlspace.2012.DVDRip.H264.AC3.HS.mkv 777.886 MB
Crawlspace.2012.HS.nfo 2.273 KB
Torrent Downloaded From ExtraTorrent.com.txt 339 B
Gathering some info...

Register and log in Isohunt and see no captcha anymore!

4000 symbols left
Hash 3299369ADDC41563D12CC9E48B714F9DFCF8A991

Related torrents for "Crawlspace.2012.DVDRip.H264.AC3.HS(Happy New Year)"

Torrent search:

dvdrip h264 2012