imdb
rating

5.7
Six Days Seven Nights

Six Days Seven Nights (1998)

Action, Adventure, Comedy, Romance

Full description
quality   hdtv hd dvdrip h264 web-dl x264 dvdr

Six Days Seven Nights 1998 DVDrip Eng Skandale

Size 2.195 GB   0 seeders     Added 2013-01-03 16:40:34

Stream torrent
Starting‥ You need BitLord! Get it from BitLord.com
To download or stream you need BitLord. Visit them at BitLord.com
[IMG]image[/IMG]
Avontuur / Komedie
101 minuten

geregisseerd door Ivan Reitman
met Harrison Ford, Anne Heche en David Schwimmer

Tijdens een romantisch uitje op een tropisch eiland met haar vriend besluit Robin Monroe om haar magazine te helpen door een interessant verhaal op een nabij gelegen eiland te coveren. Het enige vliegtuig op het eiland wordt bestuurd door Quinn Harris, een stevige drinker. Quinn en Robin kunnen elkaar niet uitstaan, maar wanneer hun vliegtuig crasht op een onbewoond eiland worden ze wel gedwongen met elkaar samen te werken.

Robin Monroe, a New York magazine editor, and the gruff pilot Quinn Harris must put aside their mutual dislike if they are to survive after crash landing on a deserted South Seas island.

http://www.imdb.com/title/tt0120828/

General
Complete name : Six Days Seven Nights 1998.avi
Format : AVI
Format/Info : Audio Video Interleave
File size : 2.04 GiB
Duration : 1h 37mn
Overall bit rate : 2 990 Kbps

Video
ID : 0
Format : MPEG-4 Visual
Format profile : Simple@L3
Format settings, BVOP : No
Format settings, QPel : No
Format settings, GMC : No warppoints
Format settings, Matrix : Default (H.263)
Codec ID : XVID
Codec ID/Hint : XviD
Duration : 1h 37mn
Bit rate : 2 595 Kbps
Width : 720 pixels
Height : 304 pixels
Display aspect ratio : 2.35:1
Frame rate : 25.000 fps
Color space : YUV
Chroma subsampling : 4:2:0
Bit depth : 8 bits
Scan type : Progressive
Bits/(Pixel*Frame) : 0.474
Stream size : 1.77 GiB (87%)
Writing library : XviD 1.1.2 (UTC 2006-11-01)

Audio
ID : 1
Format : AC-3
Format/Info : Audio Coding 3
Mode extension : CM (complete main)
Codec ID : 2000
Duration : 1h 37mn
Bit rate mode : Constant
Bit rate : 384 Kbps
Channel(s) : 6 channels
Channel positions : Front: L C R, Side: L R, LFE
Sampling rate : 48.0 KHz
Stream size : 269 MiB (13%)
Alignment : Aligned on interleaves
Interleave, duration : 32 ms (0.80 video frame)
Interleave, preload duration : 448 ms
Cover/Six_Days,_Seven_Nights_R4-[cdcovers_cc]-front.jpg 2.055 MB
flyer.jpg 33.678 KB
New Dutch Site.txt 117 B
Gathering some info...

Register and log in Isohunt and see no captcha anymore!

4000 symbols left
Hash B5563BB09D88B43F891FC772C25215B23B6DB326

Related torrents for "Six Days Seven Nights 1998 DVDrip Eng Skandale"

Torrent search:

dvdrip english 1998