imdb
rating

7.6
Rurouni Kenshin

Rurouni Kenshin (2012)

Action, Drama, History, Foreign

Full description
quality   hd bd x264 dvdr

Rurouni Kenshin (2012) BRRip

Size 733.057 MB   0 seeders     Added 2013-01-03 16:40:43

Stream torrent
Starting‥ You need BitLord! Get it from BitLord.com
To download or stream you need BitLord. Visit them at BitLord.com
Rurouni Kenshin (2012) BRRip

Cover: image
Screens:
 
image
 
image
 
image

[General]
Format: AVI
Format/Info: Audio Video Interleave
File size: 699 MiB
Duration: 2h 14mn
Overall bit rate: 727 Kbps

[Video]
Format: xvid
Codec ID: xvid
Duration: 2h 14mn
Bit rate: 586 Kbps
Width: 640 pixels
Height: 268 pixels
Display aspect ratio: 2.40:1
Frame rate: 24.000 fps
Bits/(Pixel*Frame): 0.142
Stream size: 564 MiB (81%)

[Audio]
Format: MPEG Audio
Format version: Version 1
Format profile: Layer 3
Mode: Joint stereo
Mode extension: MS Stereo
Codec ID: 55
Codec ID/Hint: MP3
Duration: 2h 14mn
Bit rate mode: Constant
Bit rate: 128 Kbps
Channel(s): 2 channels
Sampling rate: 48.0 KHz
Compression mode: Lossy
Stream size: 123 MiB (18%)
Alignment: Aligned on interleaves
Interleave, duration: 24 ms (0.58 video frame)
Rurouni Kenshin (2012) BRRip.avi 733.057 MB
Gathering some info...

Register and log in Isohunt and see no captcha anymore!

4000 symbols left
Hash 853DBDC31611DE3F6930A25F8C2D6833F8ED2EDB

Related torrents for "Rurouni Kenshin (2012) BRRip"

Torrent search:

2012 bd