The Rolling Stones: Voodoo in Rio

The Rolling Stones: Voodoo in Rio (1995)

Full description
quality   x264 fullhd

The Rolling Stones - Doom And Gloom {M4A+MP4} (1080p) x264 [VX] [P2PDL]

Size 50.65 MB   17 seeders     Added 2013-01-03 20:00:34

Stream torrent
Starting‥ You need BitLord! Get it from BitLord.com
To download or stream you need BitLord. Visit them at BitLord.com
________________________  Visit us at _________________________
        
http://p2pdl.com  ____________________________  http://p2pdl.com


The Rolling Stones - Doom And Gloom {M4A+MP4} (1080p) x264 [VX] [P2PDL]
 
image


Release Title: The Rolling Stones - Doom And Gloom (2012)


                          1080p Full HD MP4 Video
                                   +
                          128 Kbps/VBR M4A Audio

General
Complete name                  : The Rolling Stones - Doom And Gloom (1080p) x264 [VX] [P2PDL].mp4
Format                         : MPEG-4
Format profile                 : Base Media / Version 2
Codec ID                       : mp42
File size                      : 44.0 MiB
Duration                       : 4mn 9s

Video
ID                             : 1
Format                         : AVC
Bit rate mode                  : Variable
Bit rate                       : 1 350 Kbps
Width                          : 1 920 pixels
Height                         : 1 080 pixels
Display aspect ratio           : 16:9
Frame rate mode                : Constant
Frame rate                     : 25.000 fps
Color space                    : YUV
Chroma subsampling             : 4:2:0
Bit depth                      : 8 bits
Scan type                      : Progressive
Bits/(Pixel*Frame)             : 0.026
Stream size                    : 40.1 MiB (91%)
Writing library                : x264 core 128

Audio
ID                             : 2
Format                         : AAC
Bit rate mode                  : Variable
Bit rate                       : 128 Kbps
Channel(s)                     : 2 channels
Channel positions              : Front: L R
Sampling rate                  : 48.0 KHz
Compression mode               : Lossy
Stream size                    : 3.79 MiB (9%)

Subtitles                      : No

Screens:
 
image 
image

Thumbs:
 
image

------------------------------------------------------------------------

Notes:

* Recommended to use latest version VLC Media Player.
* Install shark007 codecs in case of any kind of problem in playback (For non-VLC Media Player users).
* Alternatively, install Core AVC codecs, the fastest decoder that there is coupled with Community Center Codec Pack and play on Windows Media Player Classic.

Greets to: VYTO, a2zRG, stumpie1971, Sheychi, staff members at ExtraTorrent, TPB,KAT, 1337x, PublicHD, Ahashare, TorrentMafia, Limetorrents, BTScene, P2PDL, and all others

Encoder Notes: Looking For Early Access To Anything You Can Provide DVDScr, R5, DVDRips, BluRay, Direct Audio, Early Music
Releases, Seedboxes, Links, Dedicated Servers anything u can provide, Advance / Promo CDs/DVDs. If You Got anything to
offer contact me at "prg@hush.com"

Facebook Fan Page: www . facebook . com / p2pdl		
Cover.jpg 38.156 KB
Info.nfo 11.074 KB
The Rolling Stones - Doom And Gloom (1080p) x264 [VX] [P2PDL].mp4 46.18 MB
Gathering some info...

Register and log in Isohunt and see no captcha anymore!

4000 symbols left
Hash 3A765BB2E8F57F3F11C2E53B9C56CEB67AD6C672