Kozhi Koovuthu (2012) Tamil Movie DVDScr MP4 - Exclusive

Size 751.323 MB   4 seeders     Added 2013-01-03 21:54:03

Stream torrent
Starting‥ You need BitLord! Get it from BitLord.com
To download or stream you need BitLord. Visit them at BitLord.com
[img]image[/img]

[quote]

Info:

ormat : MPEG-4
Format profile : Base Media
Codec ID : isom
File size : 717 MiB
Duration : 2h 24mn
Overall bit rate : 694 Kbps
Encoded date : UTC 2013-01-02 18:33:00
Tagged date : UTC 2013-01-02 18:33:00

Video
ID : 1
Format : AVC
Format/Info : Advanced Video Codec
Format profile : High@L2.1
Format settings, CABAC : Yes
Format settings, ReFrames : 4 frames
Codec ID : avc1
Codec ID/Info : Advanced Video Coding
Duration : 2h 24mn
Bit rate : 563 Kbps
Maximum bit rate : 1 875 Kbps
Width : 608 pixels
Height : 256 pixels
Display aspect ratio : 2.40:1
Frame rate mode : Constant
Frame rate : 29.970 fps
Color space : YUV
Chroma subsampling : 4:2:0
Bit depth : 8 bits
Scan type : Progressive
Bits/(Pixel*Frame) : 0.121
Stream size : 581 MiB (81%)
Writing library : x264 core 129 r2230 1cffe9f
Encoded date : UTC 2013-01-02 18:12:56
Tagged date : UTC 2013-01-02 18:33:26

Audio
ID : 2
Format : AC-3
Format/Info : Audio Coding 3
Mode extension : CM (complete main)
Format settings, Endianness : Big
Codec ID : ac-3
Duration : 2h 24mn
Bit rate mode : Constant
Bit rate : 128 Kbps
Channel(s) : 2 channels
Channel positions : Front: L R
Sampling rate : 48.0 KHz
Bit depth : 16 bits
Compression mode : Lossy
Delay relative to video : 67ms
Stream size : 132 MiB (18%)
Encoded date : UTC 2013-01-02 18:33:15
Tagged date : UTC 2013-01-02 18:33:26

[/quote]

Screens:
[img]image[/img]
[img]image[/img]
[img]image[/img]
[img]image[/img]
[img]image[/img]
[img]image[/img]
[img]image[/img]
Kozhi Koovuthu (2012) Tamil Movie DVDScr MP4 - Exclusive.mp4 751.323 MB
readme.txt 64 B
Torrent downloaded from AhaShare.com.txt 65 B
Gathering some info...

Register and log in Isohunt and see no captcha anymore!

4000 symbols left
Hash 4E77960C2E97D7464A2CD09778F31014C191E8D0