Quantum Leap

Quantum Leap (1989)

Action, Adventure, Comedy, Drama, Sci-Fi

Full description

Quantum Leap S01e01-02 - Progetto Quantum Leap Mux - XviD - Italian English Mp3 MIRCrew

Size 870.625 MB   14 seeders     Added 2013-01-04 04:36:42

Stream torrent
Starting‥ You need BitLord! Get it from BitLord.com
To download or stream you need BitLord. Visit them at BitLord.com
Quantum Leap S01e01-02 - Progetto Quantum Leap [Mux - XviD - Italian English Mp3] MIRCrew [TNT Village]



[color=#990000][IMG]image[/IMG]


[IMG]image[/IMG]

Quantum Leap S01e01-02 - Progetto Quantum Leap - Genesis part I & II

[URL=http://www.imdb.com/title/tt0096684/][IMG]image[/IMG][/URL] 




[IMG]image[/IMG]

In viaggio nel tempo (Quantum Leap) è una serie televisiva di fantascienza prodotta a partire dal 1989 per la rete NBC, per un totale di cinque stagioni. Creato da Donald P. Bellisario, 

Deborah Pratt, John Hill, Paul Brown e Tom Blomquist, ospita nel suo cast Scott Bakula (il futuro capitano Jonathan Archer della serie tv Star Trek: Enterprise) e Dean Stockwell. Venne 

trasmesso in Italia per la prima volta dalla Rai negli anni novanta, in seguito da altre emittenti private.
Continui richiami alla fisica quantistica non fanno che nascondere in realtà storie di gente comune alle prese con le difficoltà della vita, aiutate dal protagonista che prende 

letteralmente il loro posto per l'intera durata dell'episodio.

[IMG]image[/IMG]

Sam: (Scott Bakula)
Al: (Dean Stockwell)
Ziggy: Ziggy 


[IMG]image[/IMG]

Il dottor Samuel Beckett (Scott Bakula) fonda il progetto top secret Quantum Leap, che renderà finalmente possibile il viaggio nel tempo. Ma proprio quando il progetto sta per essere 

ultimato viene tagliato il finanziamento e Sam, preoccupato per il futuro incerto dell'esperimento sceglie di attivare l'ancora incompleto Acceleratore (la macchina per il salto nel tempo). 
Il protagonista si ritrova così a saltare attraverso gli anni senza un apparente motivo e senza alcun controllo.

[IMG]image[/IMG]

Quantum Leap is an American television series that was broadcast on NBC from March 26, 1989 to May 5, 1993, for a total of five seasons. The series was created by Donald Bellisario, and 

starred Scott Bakula as Dr. Sam Beckett, a quantum physicist from the near future who becomes lost in time following a time travel experiment, temporarily taking the places of other people 

to "put right what once went wrong". Dean Stockwell co-starred as Al Calavicci, Sam's womanizing, cigar-smoking sidekick and best friend, who appeared as a hologram that only Sam, animals, 

young children, and the mentally ill could see and hear.[3] The series featured a mix of comedy, drama and melodrama, social commentary, nostalgia, and science fiction, which won it a broad 

range of fans. One of its trademarks is that at the end of each episode, Sam "leaps" into the setting for the next episode, usually uttering a dismayed "Oh, boy!"

Despite struggling on Friday nights in its brief first season, the show was renewed by NBC because of its impressive 18-49 demographics. The series was moved to Wednesdays where it 

performed well in comparison to other fan-favorite series Wiseguy and China Beach. It was moved twice away from Wednesdays to Fridays in the fall of 1990 and to Tuesdays in the fall of 1992 

where it also performed well. The series finale aired in its successful Wednesday slot in May 1993.


Prima stagione (USA 1989)

[IMG]image[/IMG]

[color=green]1.01-02 Progetto Quantum Leap - Genesis part I & II 13 /09/1956[/color]
1.03 	Un amore da salvare 	Star-Crossed 15/06/1972
1.04 	La mano destra di Dio 	The Right of God 24/10/1974
1.05 	Un marito per Tess 	How the Tess Was Won 05/08/1956
1.06 	Doppio salto 	Double Identity 08/11/1965
1.07 	Il colore della verità 	The Color of Truth 08/08/1955
1.08 	Il kamikaze 	Camikazi Kid 06/06/1961
1.09 	Provaci ancora Seymour 	Play it Again, Seymour 14/04/1953

[IMG]image[/IMG]

[IMG]image[/IMG]

[IMG]image[/IMG]

[spoiler]General
Complete name : Quantum Leap S01e01-02.Mux - Italian English MIRCrew.avi
Format : AVI
Format/Info : Audio Video Interleave
File size : 830 MiB
Duration : 1h 28mn
Overall bit rate : 1 305 Kbps
Writing application : VirtualDubMod 1.5.10.2 (build 2540/release)
Writing library : VirtualDubMod build 2540/release

Video
ID : 0
Format : MPEG-4 Visual
Format profile : Advanced Simple@L5
Format settings, BVOP : Yes
Format settings, QPel : No
Format settings, GMC : No warppoints
Format settings, Matrix : Custom
Codec ID : XVID
Codec ID/Hint : XviD
Duration : 1h 28mn
Bit rate : 971 Kbps
Width : 640 pixels
Height : 480 pixels
Display aspect ratio : 4:3
Frame rate : 25.000 fps
Original frame rate : 23.976 fps
Color space : YUV
Chroma subsampling : 4:2:0
Bit depth : 8 bits
Scan type : Progressive
Bits/(Pixel*Frame) : 0.126
Stream size : 618 MiB (74%)
Writing library : XviD 1.1.0 (UTC 2005-11-22)

Audio #1
ID : 1
Format : MPEG Audio
Format version : Version 1
Format profile : Layer 3
Codec ID : 55
Codec ID/Hint : MP3
Duration : 1h 28mn
Bit rate mode : Constant
Bit rate : 128 Kbps
Channel(s) : 2 channels
Sampling rate : 48.0 KHz
Stream size : 81.4 MiB (10%)
Alignment : Aligned on interleaves
Interleave, duration : 40 ms (1.00 video frame)
Interleave, preload duration : 504 ms
Writing library : LAME3.99r
Encoding settings : -m s -V 4 -q 3 -lowpass 17 -b 128

Audio #2
ID : 2
Format : MPEG Audio
Format version : Version 1
Format profile : Layer 3
Codec ID : 55
Codec ID/Hint : MP3
Duration : 1h 28mn
Bit rate mode : Constant
Bit rate : 192 Kbps
Channel(s) : 2 channels
Sampling rate : 48.0 KHz
Stream size : 122 MiB (15%)
Alignment : Aligned on interleaves
Interleave, duration : 40 ms (1.00 video frame)
Interleave, preload duration : 504 ms
Writing library : LAME3.90.3[/spoiler]

[/color]
Quantum Leap S01e01-02.Mux - Italian English MIRCrew.avi 870.625 MB
Gathering some info...

Register and log in Isohunt and see no captcha anymore!

4000 symbols left
Hash 70B135DD21A9791F0672873A26CCDA014A030829

Related torrents for "Quantum Leap S01e01-02 - Progetto Quantum Leap Mux - XviD - Italian English Mp3 MIRCrew"