imdb
rating

7.9
Chicago Fire

Chicago Fire (2012)

Drama

Full description

Chicago Fire 2012 S01E06 WEB-DL.XviD-RoR [Lektor PL]

Size 576.35 MB   0 seeders     Added 2013-01-04 05:21:07

Stream torrent
Starting‥ You need BitLord! Get it from BitLord.com
To download or stream you need BitLord. Visit them at BitLord.com
Tytuł: ..:: Chicago Fire ::..

Produkcja: USA
Gatunek: Akcja, Dramat
Data premiery: 10.10.2012 - season 1
Reżyseria: Jeffrey Nachmanoff
Zdjęcia: Lisa Wiegand
Stacja telewizyjna: NBC
Czas trwania odcinka: 45 min.
http://www.filmweb.pl/serial/Chicago+Fire-2012-647835
http://www.nbc.com/chicago-fire/
Napisy PL: http://grupahatak.pl/ oraz: http://napisy24.pl/katalog/

Żadna praca nie jest bardziej stresująca, niebezpieczna, czy ekscytująca niż strażaków - członków Oddziału Ratunkowego i sanitariuszy z Chicago Firehouse 51. Są to odważni mężczyźni i kobiety, którzy stają oko w oko z niebezpieczeństwem, reagują, gdy wszyscy inni boją się podjąć działanie. Jednak ogromne obowiązki w pracy odbijają piętno na ich życiu osobistym. Gdy tragedia spotyka jednego z członków zespołu, w powietrzu unosi się sporo poczucia winy i żalu. Porucznik Matthew Casey (Jesse Spencer) stara się pracować normalnie, lecz nie może porozumieć się z porucznikiem Kelly Severidem (Taylor Kinney), z Oddziału Ratunkowego, z którym wzajemnie obwiniają się o śmierć jednego z członków zespołu. Gdy jednak zachodzi wyższa konieczność, są w stanie zakopać wojenny topór i stanąć na wysokości zadania, ratując życie potrzebującym pomocy.

O B S A D A:

Taylor Kinney ... Kelly Severide
Jesse Spencer ... Matthew Casey
Monica Raymund ... Gabriela Dawson
Eamonn Walker ... Walter Boden
David Eigenberg ... Christopher Herrmann
Charlie Barnett ... Peter Mills
Mo Gallini ... Joe Vargas
Lauren German ... Leslie Shay
Christian Stolte ... Mouch
Teri Reeves ... Hallie Casey

Chicago Fire 2012 S01E06 WEB-DL.XviD-RoR [Lektor PL].avi

Format : AVI
Format/Info : Audio Video Interleave
File size : 550 MiB
Duration : 42mn 24s
Overall bit rate : 1 812 Kbps
Writing application : VirtualDubMod 1.5.10.2 (build 2542/release)
Writing library : VirtualDubMod build 2542/release

Video
ID : 0
Format : MPEG-4 Visual
Format profile : Advanced Simple@L5
Format settings, BVOP : 1
Format settings, QPel : No
Format settings, GMC : No warppoints
Format settings, Matrix : Default (H.263)
Muxing mode : Packed bitstream
Codec ID : XVID
Codec ID/Hint : XviD
Duration : 42mn 24s
Bit rate : 1 611 Kbps
Width : 720 pixels
Height : 400 pixels
Display aspect ratio : 16:9
Frame rate : 23.976 fps
Color space : YUV
Chroma subsampling : 4:2:0
Bit depth : 8 bits
Scan type : Progressive
Compression mode : Lossy
Bits/(Pixel*Frame) : 0.233
Stream size : 489 MiB (89%)
Writing library : XviD 64

Audio
ID : 1
Format : AC-3
Format/Info : Audio Coding 3
Mode extension : CM (complete main)
Format settings, Endianness : Big
Codec ID : 2000
Duration : 42mn 24s
Bit rate mode : Constant
Bit rate : 192 Kbps
Channel(s) : 2 channels
Channel positions : Front: L R
Sampling rate : 48.0 KHz
Bit depth : 16 bits
Compression mode : Lossy
Stream size : 58.2 MiB (11%)
Alignment : Split accross interleaves
Interleave, duration : 42 ms (1.00 video frame)
Interleave, preload duration : 500 ms 
Chicago Fire 2012 S01E06 WEB-DL.XviD-RoR [Lektor PL].avi 576.35 MB
Gathering some info...

Register and log in Isohunt and see no captcha anymore!

4000 symbols left
Hash 6301B3889EB798CB67C124F3A479FAD6E786A8A9

Related torrents for "Chicago Fire 2012 S01E06 WEB-DL.XviD-RoR [Lektor PL]"

Torrent search:

season 01 episode 06 2012 web-dl