World Without End

World Without End (2014)

Full description

World Without End 2012 S01E01 HDTV XviD-RoR [Lektor PL]

Size 413.845 MB   2 seeders     Added 2013-01-04 18:40:58

Stream torrent
Starting‥ You need BitLord! Get it from 1BitLord.com
To download or stream you need BitLord. Visit them at BitLord.com
Tytuł: ..:: World Without End ::..

Odcinki: Sezon 1 (odcinków: 8)
Produkcja: Wielka Brytania, Niemcy, Kanada
Gatunek: Dramat historyczny, Romans
Data premiery: 04.09.2012
Reżyseria: Michael Caton-Jones
Zdjęcia: Denis Crossan
Na podstawie: Ken Follett "Świat Bez Końca"
Stacja telewizyjna: Showcase
Czas trwania odcinka: 60 min.
http://www.filmweb.pl/serial/World+Without+End-2012-622177
http://www.showcase.ca/shows/showspage.aspx?root_title_id=269651
Zwiastun: http://youtu.be/IvDP_opSbzA
Napisy PL: http://grupahatak.pl/ oraz: http://napisy24.pl/katalog/

Mieszkańcy angielskiego miasteczka Kingsbridge walczą o przetrwanie w trakcie wojny stuletniej z Francją, podczas gdy Europa zmaga się z epidemią Czarnej Śmierci.

O B S A D A:

Cynthia Nixon ... Petranilla
Miranda Richardson ... Matka Cecilia
Oliver Jackson-Cohen ... Ralph
Sarah Gadon ... Philippa
Ben Chaplin ... Sir Thomas Langley
Megan Follows ... Maud
Charlotte Riley ... Caris
Peter Firth ... Earl Roland
Rupert Evans ... Godwyn
Nora von Waldstätten ... Gwenda

World Without End 2012 S01E01 HDTV XviD-RoR [Lektor PL].avi

Format : AVI
Format/Info : Audio Video Interleave
File size : 395 MiB
Duration : 48mn 57s
Overall bit rate : 1 127 Kbps
Writing application : MEncoder SVN-r33883(20110719-gcc4.5.2)
Writing library : MPlayer

Video
ID : 0
Format : MPEG-4 Visual
Format profile : Advanced Simple@L5
Format settings, BVOP : 2
Format settings, QPel : No
Format settings, GMC : No warppoints
Format settings, Matrix : Default (H.263)
Codec ID : XVID
Codec ID/Hint : XviD
Duration : 48mn 57s
Bit rate : 987 Kbps
Width : 624 pixels
Height : 352 pixels
Display aspect ratio : 16:9
Original display aspect ratio : 16:9
Frame rate : 25.000 fps
Color space : YUV
Chroma subsampling : 4:2:0
Bit depth : 8 bits
Scan type : Progressive
Compression mode : Lossy
Bits/(Pixel*Frame) : 0.180
Stream size : 346 MiB (88%)
Writing library : XviD 1.2.1 (UTC 2008-12-04)

Audio
ID : 1
Format : MPEG Audio
Format version : Version 1
Format profile : Layer 3
Mode : Joint stereo
Mode extension : MS Stereo
Codec ID : 55
Codec ID/Hint : MP3
Duration : 48mn 57s
Bit rate mode : Constant
Bit rate : 128 Kbps
Channel(s) : 2 channels
Sampling rate : 44.1 KHz
Compression mode : Lossy
Delay relative to video : 40ms
Stream size : 44.8 MiB (11%)
Alignment : Aligned on interleaves
Interleave, duration : 26 ms (0.65 video frame)
Interleave, preload duration : 522 ms 
World Without End 2012 S01E01 HDTV XviD-RoR [Lektor PL].avi 413.845 MB
Gathering some info...

Register and log in Isohunt and see no captcha anymore!

4000 symbols left
Hash 70BE688B3B689D328D2DC2B3A42A85BEB69890BD

Related torrents for "World Without End 2012 S01E01 HDTV XviD-RoR [Lektor PL]"

Torrent search:

season 01 episode 01 hdtv 2012