Templariusze. Miłość i Krew S01E01 DVBRip XviD-RoR [Lektor PL]

Size 477.133 MB   1 seeders     Added 2013-01-04 20:21:06

Stream torrent
Starting‥ You need BitLord! Get it from BitLord.com
To download or stream you need BitLord. Visit them at BitLord.com
Tytuł PL: ..:: Templariusze. Miłość i Krew ::..
Tytuł : ..:: Arn ::..

Produkcja: Sweden
Gatunek: Kostiumowy, Melodramat, Przygodowy
Data premiery: 2010
Reżyseria: Peter Flinth
Scenariusz: Jan Guillou, Hans Gunnarsson
Zdjęcia: Eric Kress

Serialowa wersja jednego z najdroższych filmów w historii europejskiej kinematografii. Saga osadzona w średniowiecznych realiach. Opowiada o władzy, intrygach, miłości, zdradzie i namiętności. Imponujący rozmach tej produkcji jest widoczny zarówno w scenach walki, plenerach, jak również w bogatej scenografii. Serial łączy fakty historyczne z elementami fikcji.
Serial łączy w sobie:
1. Templariusze. Miłość i krew (Arn - Tempelriddaren)
2. Arn - Królestwo na końcu drogi (Arn - Riket vid vägens slut)

O B S A D A:

Joakim Nätterqvist, Sofia Helin, Mirja Turestedt, Morgan Alling, Simon Callow, Vincent Perez, Thomas W. Gabrielsson, Svante Martin, Jorgen Langhelle, Milind Soman

Arn-The.Knight.Templar.S01E01.DVBRip.XviD-RoR [Lektor PL].avi

Format : AVI
Format/Info : Audio Video Interleave
File size : 455 MiB
Duration : 47mn 16s
Overall bit rate mode : Variable
Overall bit rate : 1 346 Kbps
Writing application : VirtualDubMod 1.5.4.1 (build 2178/release)
Writing library : VirtualDubMod build 2178/release

Video
ID : 0
Format : MPEG-4 Visual
Format profile : Advanced Simple@L5
Format settings, BVOP : 1
Format settings, QPel : No
Format settings, GMC : No warppoints
Format settings, Matrix : Custom
Codec ID : XVID
Codec ID/Hint : XviD
Duration : 47mn 16s
Bit rate : 1 218 Kbps
Width : 624 pixels
Height : 352 pixels
Display aspect ratio : 16:9
Frame rate : 25.000 fps
Color space : YUV
Chroma subsampling : 4:2:0
Bit depth : 8 bits
Scan type : Progressive
Compression mode : Lossy
Bits/(Pixel*Frame) : 0.222
Stream size : 412 MiB (91%)
Writing library : XviD 64

Audio
ID : 1
Format : MPEG Audio
Format version : Version 1
Format profile : Layer 3
Mode : Joint stereo
Codec ID : 55
Codec ID/Hint : MP3
Duration : 47mn 16s
Bit rate mode : Variable
Bit rate : 114 Kbps
Nominal bit rate : 128 Kbps
Channel(s) : 2 channels
Sampling rate : 48.0 KHz
Compression mode : Lossy
Stream size : 38.7 MiB (9%)
Alignment : Aligned on interleaves
Interleave, duration : 24 ms (0.60 video frame)
Interleave, preload duration : 513 ms
Writing library : LAME3.98r
Encoding settings : -m j -V 4 -q 2 -lowpass 17 --abr 128
Arn-The.Knight.Templar.S01E01.DVBRip.XviD-RoR [Lektor PL].avi 477.133 MB
Gathering some info...

Register and log in Isohunt and see no captcha anymore!

4000 symbols left
Hash 753E14EDE7D46BE5C55F76FA9A46E014500A58E0