imdb
rating

6.9
The Summit

The Summit (2012)

Documentary

Full description
quality   x264 fullhd hdtv dvdrip

Skrillex - Summit (Ft. Ellie Goulding) {M4A+MP4} (1080p) x264 [V

Size 71.044 MB   96 seeders     Added 2013-01-04 21:55:47

Stream torrent
Starting‥ You need BitLord! Get it from 1BitLord.com
To download or stream you need BitLord. Visit them at BitLord.com
[img]image[/img]


Release Title: Skrillex - Summit (Ft. Ellie Goulding) (2012)


 1080p Full HD MP4 Video
 +
 128 Kbps/VBR M4A Audio

[code]General
Complete name : Skrillex - Summit (Ft. Ellie Goulding) (1080p) x264 [VX] [P2PDL].mp4
Format : MPEG-4
Format profile : Base Media / Version 2
Codec ID : mp42
File size : 61.2 MiB
Duration : 6mn 10s

Video
ID : 1
Format : AVC
Format/Info : Advanced Video Codec
Bit rate mode : Variable
Bit rate : 1 250 Kbps
Width : 1 920 pixels
Height : 1 080 pixels
Display aspect ratio : 16:9
Frame rate mode : Constant
Frame rate : 25.000 fps
Color space : YUV
Chroma subsampling : 4:2:0
Bit depth : 8 bits
Scan type : Progressive
Bits/(Pixel*Frame) : 0.024
Stream size : 55.3 MiB (90%)
Writing library : x264 core 128

Audio
ID : 2
Format : AAC
Format/Info : Advanced Audio Codec
Bit rate : 128 Kbps
Channel(s) : 2 channels
Channel positions : Front: L R
Sampling rate : 48.0 KHz
Stream size : 5.66 MiB (9%)

Subtitles : No[/code]

Screens:

[img]image[/img]
[img]image[/img]

Thumbs:

[img]image[/img]

------------------------------------------------------------------------

Notes:

* Recommended to use latest version VLC Media Player.
* Install shark007 codecs in case of any kind of problem in playback (For non-VLC Media Player users).
* Alternatively, install Core AVC codecs, the fastest decoder that there is coupled with Community Center Codec Pack and play on Windows Media Player Classic.

Greets to: VYTO, a2zRG, Stumpie1971, Sheychi, Caveman, Ash968, Neon, Masta and staff members at ExtraTorrent, TPB, H33T, KAT, 1337x, PublicHD, Ahashare, TorrentMafia, Limetorrents, BTScene, P2PDL, and all others

Encoder Notes: Looking For Early Access To Anything You Can Provide DVDScr, R5, DVDRips, BluRay, Direct Audio, Early Music
Releases, Seedboxes, Links, Dedicated Servers anything u can provide, Advance / Promo CDs/DVDs. If You Got anything to
offer contact me at "prg@hush.com"

[img]image[/img]

[URL=http://www.facebook.com/p2pdl][IMG]image[/IMG][/URL]
Cover.jpg 115.592 KB
Info.nfo 10.454 KB
Skrillex - Summit (Ft. Ellie Goulding) (1080p) x264 [VX] [P2PDL].mp4 64.135 MB
Gathering some info...

Register and log in Isohunt and see no captcha anymore!

4000 symbols left
Hash 0EBFECE6CEAAA349A675D7136F153B6AA4BCB34A

Related torrents for "Skrillex - Summit (Ft. Ellie Goulding) {M4A+MP4} (1080p) x264 [V"

Torrent search:

x264 fullhd