imdb
rating

6.2
Dark Shadows

Dark Shadows (2012)

Comedy, Fantasy

Full description
quality   screener x264 hd bd dvdrip dvd

Dark Shadows 2012 English [EngSub][Accipiter]

Size 941.463 MB   34 seeders     Added 2013-01-04 22:54:53

Stream torrent
Starting‥ You need BitLord! Get it from 1BitLord.com
10
To download or stream you need BitLord. Visit them at BitLord.com

Release info:

General
Format                                   : Matroska
Format version                           : Version 2
File size                                : 898 MiB
Duration                                 : 1h 55mn
Overall bit rate                         : 1 091 Kbps

Video
ID                                       : 1
Format                                   : MPEG-4 Visual
Format profile                           : Simple@L3
Format settings, BVOP                    : No
Format settings, QPel                    : No
Format settings, GMC                     : No warppoints
Format settings, Matrix                  : Default (H.263)
Codec ID                                 : V_MS/VFW/FOURCC / XVID
Codec ID/Hint                            : XviD
Duration                                 : 1h 55mn
Bit rate                                 : 942 Kbps
Width                                    : 624 pixels
Height                                   : 336 pixels
Display aspect ratio                     : 1.85:1
Frame rate mode                          : Constant
Frame rate                               : 25.000 fps
Color space                              : YUV
Chroma subsampling                       : 4:2:0
Bit depth                                : 8 bits
Scan type                                : Progressive
Compression mode                         : Lossy
Bits/(Pixel*Frame)                       : 0.180
Stream size                              : 775 MiB (86%)
Language                                 : English
Default                                  : Yes
Forced                                   : No

Audio
ID                                       : 2
Format                                   : MPEG Audio
Format version                           : Version 1
Format profile                           : Layer 3
Mode                                     : Joint stereo
Mode extension                           : MS Stereo
Muxing mode                              : Header stripping
Codec ID                                 : A_MPEG/L3
Codec ID/Hint                            : MP3
Duration                                 : 1h 55mn
Bit rate mode                            : Constant
Bit rate                                 : 128 Kbps
Channel(s)                               : 2 channels
Sampling rate                            : 48.0 KHz
Compression mode                         : Lossy
Stream size                              : 105 MiB (12%)
Writing library                          : LAME3.98
Language                                 : English
Default                                  : Yes
Forced                                   : No

Text
ID                                       : 3
Format                                   : UTF-8
Codec ID                                 : S_TEXT/UTF8
Codec ID/Info                            : UTF-8 Plain Text
Language                                 : English
Default                                  : Yes
Forced                                   : No



Source:
credit to original movie ripper NYDIC (Thanks)

IMDB Info:

An imprisoned vampire, Barnabas Collins, is set free and returns to his ancestral home, where his dysfunctional descendants are in need of his protection.

Director: Tim Burton
Writers: Seth Grahame-Smith (screenplay), John August (story), 
Stars: Johnny Depp, Michelle Pfeiffer and Eva Green

Genres: Comedy | Fantasy
 
http://www.imdb.com/title/tt1077368/

Screen Shot:
 
image 
image 
image 
image 
image 
image		
Dark Shadows 2012 English [EngSub].mkv 941.462 MB
Torrent Downloaded From Digtorrent.org.txt 346 B
Torrent downloaded from souravfile torrents on BTScene.eu.txt 69 B
Gathering some info...

Register and log in Isohunt and see no captcha anymore!

4000 symbols left
Hash A4716CBF2B7926EDBE552E6B30E2B6CDEED562DC

Related torrents for "Dark Shadows 2012 English [EngSub][Accipiter]"

Torrent search:

english 2012