imdb
rating

6.5
West

West (2013)

Drama

Full description

Kanye West Feat. Rihanna - All Of The Lights [Music Video] 1080p [Sbyky]

Size 134.453 MB   21 seeders     Added 2013-01-05 00:00:24

Stream torrent
Starting‥ You need BitLord! Get it from BitLord.com
To download or stream you need BitLord. Visit them at BitLord.com
 image

Cover 
image

Epilepsy Warning

General
Complete name                            : Kanye West Feat. Rihanna - All Of The Lights [Music Video] 1080p [Sbyky].avi
Format                                   : AVI
Format/Info                              : Audio Video Interleave
File size                                : 128 MiB
Duration                                 : 4mn 18s
Overall bit rate                         : 4 157 Kbps

Video
ID                                       : 0
Format                                   : AVC
Format/Info                              : Advanced Video Codec
Format profile                           : Main@L5.1
Format settings, CABAC                   : Yes
Format settings, ReFrames                : 2 frames
Codec ID                                 : H264
Duration                                 : 4mn 18s
Bit rate                                 : 3 892 Kbps
Width                                    : 1 920 pixels
Height                                   : 1 080 pixels
Display aspect ratio                     : 16:9
Frame rate                               : 25.000 fps
Color space                              : YUV
Chroma subsampling                       : 4:2:0
Bit depth                                : 8 bits
Scan type                                : Progressive
Bits/(Pixel*Frame)                       : 0.075
Stream size                              : 120 MiB (94%)

Audio
ID                                       : 1
Format                                   : MPEG Audio
Format version                           : Version 1
Format profile                           : Layer 3
Codec ID                                 : 55
Codec ID/Hint                            : MP3
Duration                                 : 4mn 18s
Bit rate mode                            : Constant
Bit rate                                 : 256 Kbps
Channel(s)                               : 2 channels
Sampling rate                            : 44.1 KHz
Compression mode                         : Lossy
Stream size                              : 7.90 MiB (6%)
Alignment                                : Split accross interleaves
Interleave, duration                     : 40 ms (1.00 video frame)
Interleave, preload duration             : 129 ms

Shared By Sbyky 
image		
Kanye West Feat. Rihanna - All Of The Lights [Music Video] 1080p [Sbyky].avi 134.453 MB
Gathering some info...

Register and log in Isohunt and see no captcha anymore!

4000 symbols left
Hash 5A38719AC48A6DCD8F3136D913F482A720DA45A5

Related torrents for "Kanye West Feat. Rihanna - All Of The Lights [Music Video] 1080p [Sbyky]"

Torrent search:

fullhd