imdb
rating

6.3
Taken 2

Taken 2 (2012)

Action, Crime, Drama, Thriller

Full description
quality   screener x264 dvd dvdrip hd bd

Taken 2 [2012] [UNRATED EXTENDED] BRRip x264 AAC-V3nom

Size 366.972 MB   4 seeders     Added 2013-01-05 00:40:44

Stream torrent
Starting‥ You need BitLord! Get it from BitLord.com
To download or stream you need BitLord. Visit them at BitLord.com
[b][size=200][color=black]PLOT[/color][/size][/b]
[code]In Istanbul, retired CIA operative Bryan Mills and his 
wife are taken hostage by the father of a kidnapper Mills killed 
while rescuing his daughter.[/code]
[b][size=200][color=black]IMDB[/color][/size][/b]
[code]http://www.imdb.com/title/tt1397280/[/code]
[b][size=200][color=black]MOVIE INFO[/color][/size][/b]
[code]Taken 2 [2012] [UNRATED EXTENDED] BRRip x264 AAC-V3nom
Format                                   : MPEG-4
Format profile                           : Base Media / Version 2
Codec ID                                 : mp42
File size                                : 346 MiB
Duration                                 : 1h 38mn
Overall bit rate mode                    : Variable
Overall bit rate                         : 492 Kbps
Encoded date                             : UTC 2013-01-04 16:11:14
Tagged date                              : UTC 2013-01-04 16:52:56
Video
ID                                       : 1
Format                                   : AVC
Format/Info                              : Advanced Video Codec
Format profile                           : Main@L2.1
Format settings, CABAC                   : Yes
Format settings, ReFrames                : 4 frames
Codec ID                                 : avc1
Codec ID/Info                            : Advanced Video Coding
Duration                                 : 1h 38mn
Bit rate mode                            : Variable
Bit rate                                 : 366 Kbps
Width                                    : 640 pixels
Height                                   : 272 pixels
Display aspect ratio                     : 2.40:1
Original display aspect ratio            : 2.40:1
Frame rate mode                          : Variable
Frame rate                               : 23.976 fps
Minimum frame rate                       : 5.994 fps
Maximum frame rate                       : 23.981 fps
Color space                              : YUV
Chroma subsampling                       : 4:2:0
Bit depth                                : 8 bits
Scan type                                : Progressive
Bits/(Pixel*Frame)                       : 0.088
Stream size                              : 254 MiB (73%)
Writing library                          : x264 core 112
Audio
ID                                       : 2
Format                                   : AAC
Format/Info                              : Advanced Audio Codec
Format profile                           : LC
Codec ID                                 : 40
Duration                                 : 1h 36mn
Bit rate mode                            : Variable
Bit rate                                 : 128 Kbps
Maximum bit rate                         : 234 Kbps
Channel(s)                               : 2 channels
Channel positions                        : Front: L R
Sampling rate                            : 48.0 KHz
Compression mode                         : Lossy
Delay relative to video                  : 209ms
Stream size                              : 88.4 MiB (26%)
Encoded date                             : UTC 2013-01-04 16:11:14
Tagged date                              : UTC 2013-01-04 16:52:52[/code]
[b][size=200][color=black]SOURCE[/color][/size][/b]
[code]Taken 2 (2012) 720p BrRip x264 - YIFY(Thanks)[/code]
[b][size=200][color=black]SCREENSHOTS[/color][/size][/b]
" border="0" alt="Taken 2 [2012] [UNRATED EXTENDED] BRRip x264 AAC-V3nom preview 2"/>" border="0" alt="Taken 2 [2012] [UNRATED EXTENDED] BRRip x264 AAC-V3nom preview 2"/>		
sample.m4v 3.539 MB
Taken 2 [2012] [UNRATED EXTENDED] BRRip x264 AAC-V3nom.jpg 144.731 KB
Taken 2 [2012] [UNRATED EXTENDED] BRRip x264 AAC-V3nom.m4v 363.136 MB
Gathering some info...

Register and log in Isohunt and see no captcha anymore!

4000 symbols left
Hash 91F11719022AF80A2CB5EA0955EFC225C8B2BFE9

Related torrents for "Taken 2 [2012] [UNRATED EXTENDED] BRRip x264 AAC-V3nom"

Torrent search:

x264 2012 bd