imdb
rating

8.1
The Terminator

The Terminator (1984)

Action, Science Fiction, Thriller

Full description

Terminator (1984) (J Cameron)-Remastered-BrDrip-HD 720p@H 263[)(

Size 10.211 GB   0 seeders     Added 2013-01-05 01:44:35

Stream torrent
Starting‥ You need BitLord! Get it from 1BitLord.com
To download or stream you need BitLord. Visit them at BitLord.com
Here is our special remastered BrDrip of "Terminator" first opus of the saga released on 1984.
Btw,we forgot a little thing :
We wish you all a very happy new year 2013 with our best wishes and more indeed.

BD source : Metal box jacket "Limited edition" released to public on market in october 2012...
So far,this is the best remastered version of this one,concerning quality between video and sound and color as well.
For this time,we bring you it as mkv. H.263 in hd.720p still with our lovered E-AC3 aka DD+ 32 bit/48 Khz/5.1 at 640 kbps in English and French with english sub only.
This movie has been sucessfully tested on PotPlayer and PowerDVD 11 and 12 as fully working anyway.
We always test our movie through an AV Amplifier Home Cinema Pioneer VSX-2022K
7.2 channels to be sure to get true functional sound anyway.
Btw,no more pixelated garbage as well as you can find few screenshoots of this movie where you know and as usual anyway
...
You may get possible few micro Pixelations but no more in any case if you run on a decent 
video graphic card in 256 bits or more.
A 128 bits should still working quite fine within but we cannot promise you the best possible experience on a 64 bits model so.
Final Thoughts : a good 15/20 seems approximaly just right for...
A good quality can be expected for sure anyway.
Final size : 9,5 Go
Status : PreRC3 as experimental but working project anyway.
We recommend you to try 24 bits sound if supported on your computer or try 16 bits to see if better so.(PotPlayer supports 16,24 and 32 bits sound anyway)
Btw,take care 'cause Basses can be quite strong in 32 bits so set your bass to 0.0 db strict for starting and see after to be sure then.  
Below here are few details about this movie :

General :
    
    Complete name : D:Terminator.(1984).(J.Cameron)-Remastered-BrDrip-HD.720p@H.263[)(]E-AC3 5.1-(US-FR)+US_sub-PreRC3.mkv

    Format : Matroska
    Format version : Version 2
    File size : 9.51 GiB
    Duration : 1h 47mn
    Overall bit rate : 12.7 Mbps
    Encoded date : UTC 2012-11-09 17:35:27
    Writing application : Lavf54.32.100
    Writing library : Lavf54.32.100
  Video #1
    ID : 1
    Format : H.263
    Codec ID : V_MS/VFW/FOURCC / H263
    Duration : 1h 47mn
    Bit rate : 11.6 Mbps
    Width : 1 280 pixels
    Height : 720 pixels
    Display aspect ratio : 16:9
    Frame rate mode : Constant
    Frame rate : 23.976 fps
    Bit depth : 8 bits
    Compression mode : Lossy
    Bits/(Pixel*Frame) : 0.524
    Stream size : 8.65 GiB (91%)
    Default : Yes
    Forced : No
  Audio #2
    ID : 2
    Format : E-AC-3
    Format/Info : Audio Coding 3
    Format settings, Endianness : Big
    Codec ID : A_EAC3
    Duration : 1h 47mn
    Bit rate mode : Constant
    Bit rate : 448 Kbps
    Channel(s) : 6 channels
    Channel positions : Front: L C R, Side: L R, LFE
    Sampling rate : 48.0 KHz
    Bit depth : 32 bits
    Compression mode : Lossy
    Stream size : 343 MiB (4%)
    Language : English
    Default : Yes
    Forced : No
  Audio #3
    ID : 3
    Format : E-AC-3
    Format/Info : Audio Coding 3
    Format settings, Endianness : Big
    Codec ID : A_EAC3
    Duration : 1h 47mn
    Bit rate mode : Constant
    Bit rate : 448 Kbps
    Channel(s) : 6 channels
    Channel positions : Front: L C R, Side: L R, LFE
    Sampling rate : 48.0 KHz
    Bit depth : 32 bits
    Compression mode : Lossy
    Stream size : 343 MiB (4%)
    Language : French
    Default : Yes
    Forced : No

Enjoy and seed,please,thx
remember : we don't aim perfection but just originality,no more.
cu around and thx for watching as well as for your fidelity and trust to us.
We seed "as clean" and this will still be the case for ever to ever anyway.
PS: a mkv h.264 will be seeded also asap ;)		
Terminator.(1984).(J.Cameron)-Remastered-BrDrip-HD.720p@H.263[)(]E-AC3 5.1-(US-FR)+US_sub-PreRC3.mkv 10.211 GB
Gathering some info...

Register and log in Isohunt and see no captcha anymore!

4000 symbols left
Hash 13730d1d44576d4a6cb9278435aeed0570547f8f

Related torrents for "Terminator (1984) (J Cameron)-Remastered-BrDrip-HD 720p@H 263[)("

Torrent search:

1984 hd