imdb
rating

3.9
Ghoul

Ghoul (2012)

Thriller

Full description
quality   dvdrip x264 h264 hd web-dl

Ghoul (2012) DVDRip

Size 733.593 MB   0 seeders     Added 2013-01-05 03:41:25

Stream torrent
Starting‥ You need BitLord! Get it from BitLord.com
To download or stream you need BitLord. Visit them at BitLord.com
Ghoul (2012) DVDRip

Screens:
 
image
 
image
 
image

[General]
Format: AVI
Format/Info: Audio Video Interleave
File size: 700 MiB
Duration: 1h 21mn
Overall bit rate: 1 202 Kbps

[Video]
Format: xvid
Codec ID: xvid
Duration: 1h 21mn
Bit rate: 1 061 Kbps
Width: 640 pixels
Height: 356 pixels
Display aspect ratio: 16:9
Frame rate: 23.976 fps
Bits/(Pixel*Frame): 0.194
Stream size: 618 MiB (88%)

[Audio]
Format: MPEG Audio
Format version: Version 1
Format profile: Layer 3
Mode: Joint stereo
Mode extension: MS Stereo
Codec ID: 55
Codec ID/Hint: MP3
Duration: 1h 21mn
Bit rate mode: Constant
Bit rate: 128 Kbps
Channel(s): 2 channels
Sampling rate: 48.0 KHz
Compression mode: Lossy
Stream size: 74.5 MiB (11%)
Alignment: Aligned on interleaves
Interleave, duration: 24 ms (0.58 video frame)		
Ghoul (2012) DVDRip.avi 733.593 MB
Gathering some info...

Register and log in Isohunt and see no captcha anymore!

4000 symbols left
Hash 4CAB3FCCD312EA7FF2A8145CE0E83396FBD05457

Related torrents for "Ghoul (2012) DVDRip"

Torrent search:

dvdrip 2012