Britain On Film

Britain On Film (2014)

Full description

Britain On Film - E01 to 05 of 10 - TVrip - Xvid - Slimoo

Size 1.834 GB   0 seeders     Added 2013-01-05 08:21:53

Stream torrent
Starting‥ You need BitLord! Get it from 1BitLord.com
10
To download or stream you need BitLord. Visit them at BitLord.com
Britain On Film - E01 to 05 of 10 - Xvid - TVrip - Slimoo



[b][color=Red]Please Return and add a comment on the [/color][color=Black]QUALITY[/color].

[color=Red]Comments on[/color] [color=Black]QUALITY[/color][color=Red] are to help [/color][color=Black]"YOU"[/color][color=Red] the downloaders


[/color][/b]

[color=Blue][b]I put a lot of effort into my TVrips

Unlike most posted TVrips my BBC rips have full endings

I don't like squashed credits with announcer talk-over

I fix this before posting, so mine are more like DVDrips than TVrips

[/b][/color]

_ 

Series using the Rank Organisation's Look at Life documentary shorts to look at British society during the 1960s

http://www.bbc.co.uk/programmes/b01nvph4/episodes/guide


Britain On Film - S01 - E01 - A Woman's Place
Britain On Film - S01 - E02 - Brits At Play
Britain On Film - S01 - E03 - Getting Down To Business
Britain On Film - S01 - E04 - Dedicated Followers Of Fashion
Britain On Film - S01 - E05 - Then Joy Of Tech






Format : AVI
Format/Info : Audio Video Interleave
File size : 350 MiB
Duration : 28mn 57s
Overall bit rate mode : Variable
Overall bit rate : 1 689 Kbps
Writing application : VirtualDubMod 1.5.4.1 (build 2178/release)
Writing library : VirtualDubMod build 2178/release

Video
ID : 0
Format : MPEG-4 Visual
Format profile : Advanced Simple@L5
Format settings, BVOP : 1
Format settings, QPel : No
Format settings, GMC : No warppoints
Format settings, Matrix : Custom
Codec ID : XVID
Codec ID/Hint : XviD
Duration : 28mn 57s
Bit rate : 1 571 Kbps
Width : 720 pixels
Height : 416 pixels
Display aspect ratio : 1.731
Frame rate : 25.000 fps
Color space : YUV
Chroma subsampling : 4:2:0
Bit depth : 8 bits
Scan type : Progressive
Compression mode : Lossy
Bits/(Pixel*Frame) : 0.210
Stream size : 325 MiB (93%)
Writing library : XviD 64

Audio
ID : 1
Format : MPEG Audio
Format version : Version 1
Format profile : Layer 3
Mode : Joint stereo
Mode extension : MS Stereo
Codec ID : 55
Codec ID/Hint : MP3
Duration : 28mn 57s
Bit rate mode : Variable
Bit rate : 105 Kbps
Nominal bit rate : 128 Kbps
Channel(s) : 2 channels
Sampling rate : 48.0 KHz
Compression mode : Lossy
Stream size : 21.7 MiB (6%)
Alignment : Aligned on interleaves
Interleave, duration : 24 ms (0.60 video frame)
Interleave, preload duration : 548 ms
Writing library : LAME3.98r
Encoding settings : -m j -V 4 -q 2 -lowpass 17 --abr 128
 






.
Britain On Film - S01 - E01 - A Woman's Place.avi 366.825 MB
Britain On Film - S01 - E02 - Brits At Play.avi 366.733 MB
Britain On Film - S01 - E03 - Getting Down To Business.avi 367.018 MB
Gathering some info...

Register and log in Isohunt and see no captcha anymore!

4000 symbols left
Hash 6CDE63AF1FF19EA929C901574C49B7FACC1F8075

Related torrents for "Britain On Film - E01 to 05 of 10 - TVrip - Xvid - Slimoo"

Torrent search:

hdtv episode 05