imdb
rating

8.4
Person of Interest

Person of Interest (2011)

Action, Adventure, Drama, Mystery, Thriller

Full description

Person of Interest S02E09 HDTV XviD-RoR [Lektor PL]

Size 576.799 MB   7 seeders     Added 2013-01-05 13:01:19

Stream torrent
Starting‥ You need BitLord! Get it from BitLord.com
To download or stream you need BitLord. Visit them at BitLord.com
Tytuł PL: ..:: Impersonalni ::..
Tytuł : ..:: Person of Interest ::..

Produkcja: USA
Gatunek: Thriller, Dramat, Kryminał
Data premiery: 27.09.2012 - season 2
Reżyseria: David Semel, Richard J. Lewis
Zdjęcia: Teodoro Maniaci
Muzyka: Ramin Djawadi
Stacja telewizyjna: CBS
Czas trwania odcinka: 44 min.
http://www.filmweb.pl/serial/Impersonalni-2011-618075
http://www.cbs.com/shows/person_of_interest/
Napisy PL: http://grupahatak.pl/ oraz: http://napisy24.pl/katalog/

Nieco ekscentryczny milioner Harold Finch (znany z serialu "Zagubieni" Michael Emerson), który dorobił się fortuny w branży komputerowej. Do swojego tajnego projektu angażuje byłego agenta CIA Johna Reese'a ( w tej roli Jim Caviezel – "Pasja", "Cienka czerwona linia"). Finch stworzył program, który potrafi przewidzieć fakt popełnienia przestępstwa, wskazując nazwisko osoby. Niestety maszyna nie podaje żadnych dodatkowych szczegółów. Rozwikłanie tych skomplikowanych zagadek to rola tandemu Finch – Reese.

O B S A D A:

James Caviezel ... John Reese
Kevin Chapman ... Detektyw Lionel Fusco
Michael Emerson ... Harold Finch
Taraji P. Henson ... Detektyw Joss Carter

Person.of.Interest.S02E09.HDTV.XviD-RoR [Lektor PL].avi

Format : AVI
Format/Info : Audio Video Interleave
File size : 550 MiB
Duration : 43mn 33s
Overall bit rate : 1 766 Kbps
Writing application : VirtualDubMod 1.5.10.2 (build 2540/release)
Writing library : VirtualDubMod build 2540/release

Video
ID : 0
Format : MPEG-4 Visual
Format profile : Advanced Simple@L5
Format settings, BVOP : 2
Format settings, QPel : No
Format settings, GMC : No warppoints
Format settings, Matrix : Default (MPEG)
Codec ID : XVID
Codec ID/Hint : XviD
Duration : 43mn 33s
Bit rate : 1 564 Kbps
Width : 720 pixels
Height : 400 pixels
Display aspect ratio : 16:9
Frame rate : 23.976 fps
Color space : YUV
Chroma subsampling : 4:2:0
Bit depth : 8 bits
Scan type : Progressive
Compression mode : Lossy
Bits/(Pixel*Frame) : 0.227
Stream size : 487 MiB (89%)
Writing library : XviD 64

Audio
ID : 1
Format : AC-3
Format/Info : Audio Coding 3
Mode extension : CM (complete main)
Format settings, Endianness : Big
Codec ID : 2000
Duration : 43mn 33s
Bit rate mode : Constant
Bit rate : 192 Kbps
Channel(s) : 2 channels
Channel positions : Front: L R
Sampling rate : 48.0 KHz
Bit depth : 16 bits
Compression mode : Lossy
Stream size : 59.8 MiB (11%)
Alignment : Split accross interleaves
Interleave, duration : 42 ms (1.00 video frame)
Interleave, preload duration : 500 ms 
Person.of.Interest.S02E09.HDTV.XviD-RoR [Lektor PL].avi 576.799 MB
Gathering some info...

Register and log in Isohunt and see no captcha anymore!

4000 symbols left
Hash 3AF3C63481757374A43951E9D37935FAF8A72B1E

Related torrents for "Person of Interest S02E09 HDTV XviD-RoR [Lektor PL]"

Torrent search:

season 02 hdtv episode 09