Kholi No 5 - Marathi Comedy Drama - Kishori Ambiye, Vijay Chavan, Rohan Jaywant mp4

Size 359.46 MB   0 seeders     Added 2013-01-05 14:35:26

Stream torrent
Starting‚Ä• You need BitLord! Get it from BitLord.com
To download or stream you need BitLord. Visit them at BitLord.com
image 
image 
image 
image 
image 
image

Info - 
Starring: Kishori Ambiye, Vijay Chavan, Rohan Jaywant. 

Director: Nikhil Mehendale. 

Synopsis: Four bachelors; Vaman, Bajrang, Vasant and Tukaram share a room in a chawl owned by the brut landlord, Mr. Vaag. Vaag wants Vaman to marry his daughter so that the other three men can be driven out of the chawl. Faced with a possible eviction, Bajrang, Vasant and Tukaram device a scheme to foil Mr. Vaag's plan. The house maid Saku Bai, Vasant's girlfriend Kamal and Vaman's Nana all get sucked into their crazy scheme which spins out of control leading to hilarious situations. Wacky events follow suit when a thug wants to kill Tukaram, Kamal thinks Vasant is cheating on her, and Vaman is blamed of having an affair with Bajrang's sister. What is leading to all the chaos? Is someone executing a counter plan? Can the three men save themselves from being dislodged?

Media Info - 
General
Format                         : MPEG-4
Format profile                 : Base Media / Version 2
Codec ID                       : mp42
File size                      : 343 MiB
Duration                       : 1h 27mn
Overall bit rate mode          : Variable
Overall bit rate               : 548 Kbps

Video
ID                             : 1
Format                         : AVC
Format/Info                    : Advanced Video Codec
Format profile                 : Baseline@L2.1
Format settings, CABAC         : No
Format settings, ReFrames      : 1 frame
Codec ID                       : avc1
Codec ID/Info                  : Advanced Video Coding
Duration                       : 1h 27mn
Bit rate                       : 452 Kbps
Maximum bit rate               : 1 008 Kbps
Width                          : 480 pixels
Height                         : 360 pixels
Display aspect ratio           : 4:3
Frame rate mode                : Constant
Frame rate                     : 25.000 fps
Color space                    : YUV
Chroma subsampling             : 4:2:0
Bit depth                      : 8 bits
Scan type                      : Progressive
Bits/(Pixel*Frame)             : 0.105
Stream size                    : 283 MiB (82%)

Audio
ID                             : 2
Format                         : AAC
Format/Info                    : Advanced Audio Codec
Format profile                 : LC
Codec ID                       : 40
Duration                       : 1h 27mn
Bit rate mode                  : Variable
Bit rate                       : 93.8 Kbps
Maximum bit rate               : 136 Kbps
Channel(s)                     : 2 channels
Channel positions              : Front: L R
Sampling rate                  : 44.1 KHz
Compression mode               : Lossy
Stream size                    : 58.6 MiB (17%)

Ripper : SaketSaket

Seeding 24x7... Extreme Seeding...


Enjoy!
Kholi No.5 - Marathi Comedy Drama - Kishori Ambiye, Vijay Chavan, Rohan Jaywant.mp4 359.46 MB
Gathering some info...

Register and log in Isohunt and see no captcha anymore!

4000 symbols left
Hash F19FD514C24C2789292A97F4887B8AEB10E122AF