Skrillex - Reason EP

Size 95.324 MB   7 seeders     Added 2013-01-05 20:53:15

Stream torrent
Starting‥ You need BitLord! Get it from 1BitLord.com
To download or stream you need BitLord. Visit them at BitLord.com
The Reason
Audio
Format                           : FLAC
Format/Info                      : Free Lossless Audio Codec
Duration                         : 4mn 16s
Bit rate mode                    : Variable
Bit rate                         : 1 055 Kbps
Channel(s)                       : 2 channels
Sampling rate                    : 44.1 KHz
Bit depth                        : 16 bits
Stream size                      : 32.3 MiB (100%)

Scary Bolly Dub
Audio
Format                           : FLAC
Format/Info                      : Free Lossless Audio Codec
Duration                         : 3mn 39s
Bit rate mode                    : Variable
Bit rate                         : 1 134 Kbps
Channel(s)                       : 2 channels
Sampling rate                    : 44.1 KHz
Bit depth                        : 16 bits
Stream size                      : 29.7 MiB (100%)

Leaving
Audio
Format                           : FLAC
Format/Info                      : Free Lossless Audio Codec
Duration                         : 4mn 46s
Bit rate mode                    : Variable
Bit rate                         : 848 Kbps
Channel(s)                       : 2 channels
Sampling rate                    : 44.1 KHz
Bit depth                        : 16 bits
Stream size                      : 29.0 MiB (100%)

My Old Account Eestiasi2

What IS Flac http://en.wikipedia.org/wiki/Flac

No Image :(			
1. Skrillex - The Reason.flac 33.859 MB
2. Skrillex - Scary Bolly Dub.flac 31.104 MB
3. Skrillex - Leaving.flac 30.361 MB
Gathering some info...

Register and log in Isohunt and see no captcha anymore!

4000 symbols left
Hash 2D96FCAD4D7BCF10C787A47C1FF319907AA6767F