Hit List 2012 Tamil Pre DVDRip 1CD XviD MP3 Team XDN

Size 776.705 MB   0 seeders     Added 2013-01-05 23:01:09

Stream torrent
Starting‥ You need BitLord! Get it from 1BitLord.com
To download or stream you need BitLord. Visit them at BitLord.com
Hit List 2012 Tamil Pre DVDRip 1CD XviD MP3 Team XDN

|| Feel Entertained



[B][COLOR="Red"]:: Movie Info ::[/COLOR][/B]

[IMG]image[/IMG]

[B][COLOR="red"]Cast:-[/COLOR]Bala, Dhruv, Aishwarya Devan, Sandhya, Unni Mukundan, Narain, Tini Tom, Sasi Kalinga, Suresh Krishna, Rizabawa, "Thalaivasal" Vijay, Krishna, Riyaz Khan And Many Other’s…

[COLOR="red"]Music:-[/COLOR]Alphons Joseph

[COLOR="Red"]Director:-[/COLOR]Bala[/B]


[B][COLOR="red"]:: File Info ::[/COLOR]

Format : AVI
File size : 741 MiB
Duration : 2h 12mn
Overall bit rate : 780 Kbps

[COLOR="red"]:: Video ::[/COLOR]

Codec ID : XVID
Duration : 2h 12mn
Bit rate : 693 Kbps
Width : 608 pixels
Height : 252 pixels
Display aspect ratio : 2.40:1
Frame rate : 29.970 fps
Compression mode : Lossy
Stream size : 658 MiB (89%)

[COLOR="Red"]
:: Audio ::[/COLOR]

Mode : Joint stereo
Codec ID : MP3
Duration : 2h 12mn
Bit rate mode : Constant
Bit rate : 80.0 Kbps
Channel(s) : 2 channels
Sampling rate : 32.0 KHz
Compression mode : Lossy
Stream size : 76.0 MiB [/B]


[B][COLOR="Red"]:: Screenshot ::[/COLOR][/B]
 
image
 
image
 
image



[B]Credits:Shammu[/B]


		
XDN - XtremeDoN- Hit List 2012 Pre DVDRip 1CD XviD MP3 Team XDN.avi 776.543 MB
Team XDN.jpg 161.979 KB
Surprise Open.txt 173 B
Gathering some info...

Register and log in Isohunt and see no captcha anymore!

4000 symbols left
Hash 3EEBFF87842C07F8356DFFBEE1BE793519A1BBF2