Allegiance (2012) BRRip

Size 733.308 MB   5 seeders     Added 2013-01-06 00:20:52

Stream torrent
Starting‥ You need BitLord! Get it from BitLord.com
To download or stream you need BitLord. Visit them at BitLord.com
Allegiance (2012) BRRip

Cover: image
Screens:
 
image
 
image
 
image

[General]
Format: AVI
Format/Info: Audio Video Interleave
File size: 699 MiB
Duration: 1h 31mn
Overall bit rate: 1 074 Kbps

[Video]
Format: xvid
Codec ID: xvid
Duration: 1h 31mn
Bit rate: 933 Kbps
Width: 640 pixels
Height: 272 pixels
Display aspect ratio: 2.35:1
Frame rate: 23.976 fps
Bits/(Pixel*Frame): 0.224
Stream size: 608 MiB (87%)

[Audio]
Format: MPEG Audio
Format version: Version 1
Format profile: Layer 3
Mode: Joint stereo
Mode extension: MS Stereo
Codec ID: 55
Codec ID/Hint: MP3
Duration: 1h 31mn
Bit rate mode: Constant
Bit rate: 128 Kbps
Channel(s): 2 channels
Sampling rate: 48.0 KHz
Compression mode: Lossy
Stream size: 83.4 MiB (12%)
Alignment: Aligned on interleaves
Interleave, duration: 24 ms (0.58 video frame)
Allegiance (2012) BRRip.avi 733.308 MB
Gathering some info...

Register and log in Isohunt and see no captcha anymore!

4000 symbols left
Hash 390365ABBCDC8CBAEC1A36212BB64C3BEB25AF65

Related torrents for "Allegiance (2012) BRRip"

Torrent search:

2012 bd