imdb
rating

7.5
The Aviator

The Aviator (2004)

Drama

Full description
quality   dvdrip bd fullhd hd x264

The Aviator (2004) 1080p BRRip x264-t!nyHD

Size 3.238 GB   0 seeders     Added 2013-01-07 01:13:29

Stream torrent
Starting‥ You need BitLord! Get it from 1BitLord.com
To download or stream you need BitLord. Visit them at BitLord.com
THE Best video quality! 
ALL MY ENCODES ARE PC, PS3 & XBOX COMPATIBLE.
For PC users i recommend you download and Install the latest KMPlayer, VLC or MCP Player and set default settings for best results.
A quick thank you or feedback will be greatly appreciated. 


ORIGINAL BluRay
[img]image[/img]

MY ENCODE!
[img]image[/img]

ORIGINAL BluRay
[img]image[/img]

MY ENCODE!
[img]image[/img]


ORIGINAL BluRay
[img]image[/img]

MY ENCODE!
[img]image[/img]



Video

Format                                   : AVC  Dolby Pro Logic II
Format/Info                              : Advanced Video Codec
Format profile                           : High@L5.0
Format settings, CABAC                   : Yes
Format settings, ReFrames                : 16 frames
Codec ID/Info                            : Advanced Video Coding
Bit rate                                 : 2 213 Kbps
Maximum bit rate                         : 18.3 Mbps
Width                                    : 1 920 pixels
Height                                   : 816 pixels
Display aspect ratio                     : 2.35:1
Frame rate mode                          : Constant
Frame rate                               : 23.976 fps
Scan type                                : Progressive
Stream size                              : 2.63 GiB (88%)


Audio

ID                                       : 2
Format                                   : AAC
Format/Info                              : Advanced Audio Codec
Format profile                           : LC
Codec ID                                 : 40
Duration                                 : 2h 50mn
Bit rate mode                            : Variable
Bit rate                                 : 309 Kbps
Maximum bit rate                         : 386 Kbps
Channel(s)                               : 2 channels
Channel positions                        : Front: L R
Sampling rate                            : 48.0 KHz
Compression mode                         : Lossy
Stream size                              : 376 MiB (12%)
The Aviator (2004) BRRip - T!nyHD/The Aviator.mp4 3.224 GB
The Aviator (2004) BRRip - T!nyHD/original2.png 2.93 MB
The Aviator (2004) BRRip - T!nyHD/original3.png 2.649 MB
Gathering some info...

Register and log in Isohunt and see no captcha anymore!

4000 symbols left
Hash 49b82f3ebcecdb2ab1fe0ffaf5adeab1ee5efdc4

Related torrents for "The Aviator (2004) 1080p BRRip x264-t!nyHD"

Torrent search:

2004 x264 fullhd bd