Nicki Minaj - Va Va Voom (Explicit) 1080p [Sbyky]

Size 106.276 MB   32 seeders     Added 2013-01-08 01:00:32

Stream torrent
Starting‥ You need BitLord! Get it from BitLord.com
To download or stream you need BitLord. Visit them at BitLord.com
 image

General
Complete name                            : Nicki Minaj - Va Va Voom (Explicit) 1080p [Sbyky].mp4
Format                                   : MPEG-4
Format profile                           : Base Media / Version 2
Codec ID                                 : mp42
File size                                : 101 MiB
Duration                                 : 3mn 19s
Overall bit rate mode                    : Variable
Overall bit rate                         : 4 252 Kbps
Encoded date                             : UTC 2012-10-25 12:03:15
Tagged date                              : UTC 2012-10-25 12:03:15
gsst                                     : 0
gstd                                     : 200085
gssd                                     : B4A7D0081HH1357547013296577
gshh                                     :

Video
ID                                       : 1
Format                                   : AVC
Format/Info                              : Advanced Video Codec
Format profile                           : High@L4.0
Format settings, CABAC                   : Yes
Format settings, ReFrames                : 1 frame
Codec ID                                 : avc1
Codec ID/Info                            : Advanced Video Coding
Duration                                 : 3mn 19s
Bit rate                                 : 4 058 Kbps
Maximum bit rate                         : 13.5 Mbps
Width                                    : 1 920 pixels
Height                                   : 1 080 pixels
Display aspect ratio                     : 16:9
Frame rate mode                          : Constant
Frame rate                               : 23.976 fps
Color space                              : YUV
Chroma subsampling                       : 4:2:0
Bit depth                                : 8 bits
Scan type                                : Progressive
Bits/(Pixel*Frame)                       : 0.082
Stream size                              : 96.7 MiB (95%)
Tagged date                              : UTC 2012-10-25 12:03:16

Audio
ID                                       : 2
Format                                   : AAC
Format/Info                              : Advanced Audio Codec
Format profile                           : LC
Codec ID                                 : 40
Duration                                 : 3mn 19s
Bit rate mode                            : Variable
Bit rate                                 : 192 Kbps
Maximum bit rate                         : 202 Kbps
Channel(s)                               : 2 channels
Channel positions                        : Front: L R
Sampling rate                            : 44.1 KHz
Compression mode                         : Lossy
Stream size                              : 4.58 MiB (5%)
Title                                    : IsoMedia File Produced by Google, 5-11-2011
Encoded date                             : UTC 2012-10-25 12:03:16
Tagged date                              : UTC 2012-10-25 12:03:16

Shared By Sbyky 
image		
Nicki Minaj - Va Va Voom (Explicit) 1080p [Sbyky].mp4 106.276 MB
Gathering some info...

Register and log in Isohunt and see no captcha anymore!

4000 symbols left
Hash 25588FBD3372DA668D75500D7B2D1D7A61054A4C

Related torrents for "Nicki Minaj - Va Va Voom (Explicit) 1080p [Sbyky]"

Torrent search:

fullhd