[OOTR] Naruto Episodes 98-113 mp4

Size 550.872 MB   4 seeders     Added 2013-01-08 02:43:11

Stream torrent
Starting‥ You need BitLord! Get it from 1BitLord.com
To download or stream you need BitLord. Visit them at BitLord.com
[OOTR] Naruto Episodes 98-113


Edited to omit intros/outros and promote continuity.

Please SEED and enjoy! Leave a comment if you like.

Format                                   : MPEG-4
Format profile                           : Base Media / Version 2
Codec ID                                 : mp42
File size                                : 525 MiB
Duration                                 : 3h 14mn
Overall bit rate mode                    : Variable
Overall bit rate                         : 377 Kbps
Encoded date                             : UTC 2013-01-07 18:32:31
Tagged date                              : UTC 2013-01-07 18:32:31
©TIM                                     : 00:00:00:00
©TSC                                     : 24000
©TSZ                                     : 1001

Video
ID                                       : 1
Format                                   : AVC
Format/Info                              : Advanced Video Codec
Format profile                           : High@L3.0
Format settings, CABAC                   : Yes
Format settings, ReFrames                : 3 frames
Codec ID                                 : avc1
Codec ID/Info                            : Advanced Video Coding
Duration                                 : 3h 14mn
Source duration                          : 3h 14mn
Bit rate                                 : 248 Kbps
Width                                    : 640 pixels
Height                                   : 480 pixels
Display aspect ratio                     : 4:3
Frame rate mode                          : Variable
Frame rate                               : 23.976 fps
Minimum frame rate                       : 23.976 fps
Maximum frame rate                       : 24.000 fps
Standard                                 : NTSC
Color space                              : YUV
Chroma subsampling                       : 4:2:0
Bit depth                                : 8 bits
Scan type                                : Progressive
Bits/(Pixel*Frame)                       : 0.034
Stream size                              : 345 MiB (66%)
Source stream size                       : 345 MiB (66%)
Language                                 : English
Encoded date                             : UTC 2013-01-07 18:32:31
Tagged date                              : UTC 2013-01-07 18:32:31
mdhd_Duration                            : 11677291
Color primaries                          : BT.601 NTSC
Transfer characteristics                 : BT.601
Matrix coefficients                      : BT.601

Audio
ID                                       : 2
Format                                   : AAC
Format/Info                              : Advanced Audio Codec
Format profile                           : LC
Codec ID                                 : 40
Duration                                 : 3h 14mn
Source duration                          : 3h 14mn
Bit rate mode                            : Variable
Bit rate                                 : 125 Kbps
Maximum bit rate                         : 215 Kbps
Channel(s)                               : 2 channels
Channel positions                        : Front: L R
Sampling rate                            : 48.0 KHz
Compression mode                         : Lossy
Stream size                              : 175 MiB (33%)		
[OOTR] Naruto Episodes 98-113.mp4 550.872 MB
Gathering some info...

Register and log in Isohunt and see no captcha anymore!

4000 symbols left
Hash FF84ACE28869F60DAF8107A069552EC04D155B44