imdb
rating

7.0
Cougar Town

Cougar Town (2014)

Full description

Cougar Town Sezon 2 HDTV XviD-RoR [Lektor PL]

Size 4.306 GB   9 seeders     Added 2013-01-08 03:41:23

Stream torrent
Starting‥ You need BitLord! Get it from BitLord.com
To download or stream you need BitLord. Visit them at BitLord.com
Tytuł PL: ..:: Cougar Town: Miasto Kocic ::..
Tytuł : ..:: Cougar Town ::..

Produkcja: USA
Gatunek: Komedia
Data premiery: 2009
Reżyseria: Bill Lawrence, Chris Koch
Zdjęcia: Andrew Rawson
Muzyka: Golden Sgro Waz , Al Sgro
Stacja telewizyjna: ABC
Czas trwania odcinka: 30 min.
http://www.filmweb.pl/serial/Cougar+Town%3A+Miasto+kocic-2009-492645
http://abc.go.com/shows/cougar-town

Serial opowiada o życiu czterdziestolatki Jules, która dopiero co się rozeszła z mężem i wychowuje siedemnastoletniego syna. Stawia czoła wszystkim swoim decyzjom i wydarzeniom w życiu. Za namową swojej przyjaciółki zaczyna żyć na nowo i umawiać się z facetami.

O B S A D A:

Courteney Cox ... Jules Cobb
Christa Miller ... Ellie Torres
Dan Byrd ... Travis Cobb
Ian Gomez ... Andy Torres
Busy Philipps ... Laurie Keller
Brian Van Holt ... Bobby Cobb

Miasto.Kocic.HDTV.XviD-RoR.[Lektor PL].avi

Format : AVI
Format/Info : Audio Video Interleave
File size : 191 MiB
Duration : 20mn 37s
Overall bit rate : 1 295 Kbps
Writing application : VirtualDubMod 1.5.4.1 (build 2178/release)
Writing library : VirtualDubMod build 2178/release

Video
ID : 0
Format : MPEG-4 Visual
Format profile : Advanced Simple@L5
Format settings, BVOP : 1
Format settings, QPel : No
Format settings, GMC : No warppoints
Format settings, Matrix : Custom
Codec ID : XVID
Codec ID/Hint : XviD
Duration : 20mn 37s
Bit rate : 1 160 Kbps
Width : 640 pixels
Height : 384 pixels
Display aspect ratio : 1.667
Frame rate : 25.000 fps
Color space : YUV
Chroma subsampling : 4:2:0
Bit depth : 8 bits
Scan type : Progressive
Compression mode : Lossy
Bits/(Pixel*Frame) : 0.189
Stream size : 171 MiB (90%)
Writing library : XviD 1.2.1 (UTC 2008-12-04)

Audio
ID : 1
Format : MPEG Audio
Format version : Version 1
Format profile : Layer 3
Mode : Joint stereo
Mode extension : MS Stereo
Codec ID : 55
Codec ID/Hint : MP3
Duration : 20mn 37s
Bit rate mode : Constant
Bit rate : 128 Kbps
Channel(s) : 2 channels
Sampling rate : 48.0 KHz
Compression mode : Lossy
Stream size : 18.9 MiB (10%)
Alignment : Aligned on interleaves
Interleave, duration : 80 ms (2.00 video frames)
Interleave, preload duration : 504 ms
Writing library : LAME3.98r
Encoding settings : -m j -V 4 -q 2 -lowpass 17 -b 128 
Miasto.Kocic.S02E01.HDTV.XviD-RoR.Mieszanka Wybuchowa.[Lektor PL].avi 192.035 MB
Miasto.Kocic.S02E02.HDTV.XviD-RoR.Daj Się Ponieść.[Lektor PL].avi 191.93 MB
Miasto.Kocic.S02E03.HDTV.XviD-RoR.Dziwne Dźwięki.[Lektor PL].avi 191.953 MB
Gathering some info...

Register and log in Isohunt and see no captcha anymore!

4000 symbols left
Hash 0FFC1821B45718A40AF70DED39D75899412E624C

Related torrents for "Cougar Town Sezon 2 HDTV XviD-RoR [Lektor PL]"

Torrent search:

hdtv