imdb
rating

5.2
Thunderstruck

Thunderstruck (2012)

Comedy

Full description
quality   fullhd dvdrip dvdr x264 hd bd

Thunderstruck 2012 720p BRRip XviD AC3-ABG

Size 3.982 GB   33 seeders     Added 2013-01-08 06:41:10

Stream torrent
Starting‥ You need BitLord! Get it from BitLord.com
10
To download or stream you need BitLord. Visit them at BitLord.com
[size=200]Thunderstruck.2012.720p.BRRip.XviD.AC3-ABG[/size]




[b]General Information
Format : AVI
Format/Info : Audio Video Interleave
Format profile : OpenDML
File size : 3.71 GiB
Duration : 1h 33mn
Overall bit rate : 5 649 Kbps
Movie name : Thunderstruck
Writing application : Lavf54.59.103


Video Info
ID : 0
Format : AVC
Format/Info : Advanced Video Codec
Format profile : Main@L4.1
Format settings, CABAC : Yes
Format settings, ReFrames : 2 frames
Codec ID : H264
Duration : 1h 33mn
Bit rate : 5 000 Kbps
Width : 1 280 pixels
Height : 720 pixels
Display aspect ratio : 16:9
Frame rate mode : Variable
Frame rate : 23.976 fps
Color space : YUV
Chroma subsampling : 4:2:0
Bit depth : 8 bits
Scan type : Progressive
Bits/(Pixel*Frame) : 0.226
Stream size : 3.28 GiB (89%)
Writing library : x264 core 129 r2230
Encoding settings : cabac=1 / ref=1 / deblock=1:1:0 / analyse=0:0x131 / me=hex / subme=5 / psy=1 / psy_rd=1.00:0.00 / mixed_ref=0 / me_range=16 / chroma_me=1 / trellis=0 / 8x8dct=0 / cqm=0 / deadzone=21,11 / fast_pskip=1 / chroma_qp_offset=0 / threads=3 / lookahead_threads=1 / sliced_threads=0 / nr=0 / decimate=1 / interlaced=0 / bluray_compat=0 / constrained_intra=0 / bframes=3 / b_pyramid=0 / b_adapt=1 / b_bias=0 / direct=3 / weightb=1 / open_gop=0 / weightp=2 / keyint=250 / keyint_min=25 / scenecut=40 / intra_refresh=0 / rc_lookahead=40 / rc=2pass / mbtree=1 / bitrate=5000 / ratetol=1.0 / qcomp=0.60 / qpmin=10 / qpmax=51 / qpstep=4 / cplxblur=20.0 / qblur=0.5 / vbv_maxrate=24000 / vbv_bufsize=24000 / nal_hrd=none / ip_ratio=1.40 / aq=1:1.00

Audio Info
ID : 1
Format : AC-3
Format/Info : Audio Coding 3
Mode extension : CM (complete main)
Format settings, Endianness : Big
Codec ID : 2000
Duration : 1h 33mn
Bit rate mode : Constant
Bit rate : 640 Kbps
Channel(s) : 2 channels
Channel positions : Front: L R
Sampling rate : 48.0 KHz
Bit depth : 16 bits
Compression mode : Lossy
Stream size : 430 MiB (11%)
Alignment : Aligned on interleaves
Interleave, duration : 32 ms (0.77 video frame)[/b]
Thunderstruck.2012.720p.BRRip.XviD.AC3-ABG/Thunderstruck.2012.720p.BRRip.XviD.AC3-ABG.avi 3.982 GB
Thunderstruck.2012.720p.BRRip.XviD.AC3-ABG/Thunderstruck.2012.720p.BRRip.XviD.AC3-ABG.nfo 4.332 KB
Gathering some info...

Register and log in Isohunt and see no captcha anymore!

4000 symbols left
Hash 8c4361d422b6e2283cf051a46c0300940fedf20a

Related torrents for "Thunderstruck 2012 720p BRRip XviD AC3-ABG"

Torrent search:

hd 2012 bd