imdb
rating

5.3
The Wedding Video

The Wedding Video (2012)

Comedy

Full description
quality   screener dvdrip x264 hd bd cam dvdr

The Wedding Video (2012) DVDRip

Size 733.171 MB   0 seeders     Added 2013-01-08 10:40:22

Stream torrent
Starting‥ You need BitLord! Get it from BitLord.com
To download or stream you need BitLord. Visit them at BitLord.com
The Wedding Video (2012) DVDRip

Screens:
 
image
 
image
 
image

[General]
Format: AVI
Format/Info: Audio Video Interleave
File size: 699 MiB
Duration: 1h 30mn
Overall bit rate: 1 084 Kbps

[Video]
Format: xvid
Codec ID: xvid
Duration: 1h 30mn
Bit rate: 943 Kbps
Width: 640 pixels
Height: 366 pixels
Display aspect ratio: 16:9
Frame rate: 25.000 fps
Bits/(Pixel*Frame): 0.161
Stream size: 608 MiB (87%)

[Audio]
Format: MPEG Audio
Format version: Version 1
Format profile: Layer 3
Mode: Joint stereo
Mode extension: MS Stereo
Codec ID: 55
Codec ID/Hint: MP3
Duration: 1h 30mn
Bit rate mode: Constant
Bit rate: 128 Kbps
Channel(s): 2 channels
Sampling rate: 48.0 KHz
Compression mode: Lossy
Stream size: 82.6 MiB (12%)
Alignment: Aligned on interleaves
Interleave, duration: 24 ms (0.60 video frame)		
The Wedding Video (2012) DVDRip.avi 733.171 MB
Gathering some info...

Register and log in Isohunt and see no captcha anymore!

4000 symbols left
Hash 0BCFF1E4CC5D729D78BA3DC405C2E32FC9AA8B8B

Related torrents for "The Wedding Video (2012) DVDRip"

Torrent search:

dvdrip 2012