imdb
rating

6.2
Indiana Jones and the Kingdom of the Crystal Skull

Indiana Jones and the Kingdom of the Crystal Skull (2008)

Action, Adventure

Full description
quality   cam telesync dvd bd

Indiana Jones and the Kingdom of the Crystal Skull - Indiana Jones e il Regno del Teschio di Cristallo (2008) [XviD - Italian English Ac3 - Sub Ita]MIRCrew [TNT Village]

Size 1.939 GB   56 seeders     Added 2013-01-08 21:40:22

Stream torrent
Starting‥ You need BitLord! Get it from BitLord.com
To download or stream you need BitLord. Visit them at BitLord.com
Indiana Jones and the Kingdom of the Crystal Skull - Indiana Jones e il Regno del Teschio di Cristallo (2008) [XviD - Italian English Ac3 - Sub Ita]MIRCrew [TNT Village]

Indiana Jones e il Regno del Teschio di Cristallo (2008) [XviD - Italian English Ac3 Sub Ita] Remastering MIRCrew [TNT Village]



[color=#660000][IMG]image[/IMG]

Indiana Jones e il Regno del Teschio di Cristallo 

Indiana Jones and the Kingdom of the Crystal Skull 

(2008)

[URL=http://www.imdb.com/title/tt0367882/][IMG]image[/IMG][/URL]

COLLEZIONE COFANETTO 5 DVD

[IMG]image[/IMG]

Quarto episodio della saga cinematografica di Indiana Jones.

Titolo originale 	Indiana Jones and the Kingdom of the Crystal Skull
Paese di produzione 	Stati Uniti d'America
Anno 	2008
Durata 	117 min
Rapporto 	2,35:1
Genere 	azione, avventura, fantascienza
Regia 	Steven Spielberg
Soggetto 	George Lucas e Jeff Nathanson
Sceneggiatura 	David Koepp
Produttore 	Frank Marshall
Produttore esecutivo 	George Lucas e Kathleen Kennedy
Casa di produzione 	Lucasfilm, Paramount Pictures
Fotografia 	Janusz Kaminski
Montaggio 	Michael Kahn
Effetti speciali 	Industrial Light & Magic
Musiche 	John Williams
Scenografia 	Guy Hendrix Dyas



prossima release

Indiana Jones Bonus Disk - contenuti speciali

[IMG]image[/IMG]

[IMG]image[/IMG]

[IMG]image[/IMG]

[IMG]image[/IMG]

[IMG]image[/IMG]

 Harrison Ford: Indiana Jones
 Shia LaBeouf: Mutt Williams/Henry Jones III
 Cate Blanchett: Irina Spalko
 Ray Winstone: "Mac" George McHale
 Karen Allen: Marion Ravenwood
 John Hurt: Harold Oxley
 Jim Broadbent: Charles Stanforth
 Igor Jijikine: Col. Dovchenko

Doppiatori italiani

 Michele Gammino: Indiana Jones
 Andrea Mete: Mutt Williams
 Emanuela Rossi: Irina Spalko
 Francesco Pannofino: "Mac" George McHale
 Chiara Salerno: Marion Ravenwood
 Dario Penne: Harold Oxley
 Ugo Maria Morosi: Charles Stanforth
 Carlo Scipioni: Col. Dovchenko

[IMG]image[/IMG]

[IMG]image[/IMG]

Deserto del Nevada, 1957. Un commando di militari sovietici guidati da Irina Spalko e dal Colonnello Dovchenko, espugna una base segreta americana, l'Hangar 51, conducendovi Indiana Jones e 

la sua spalla George "Mac" McHale. La comandante Spalko intende servirsi del dottor Jones per trovare una particolare cassa contenuta tra migliaia di altre in un deposito, poiché dieci anni 

prima l'uomo aveva avuto occasione di esaminarne il contenuto, dei resti di un essere apparentemente extraterrestre. Mentre l'attenzione di tutti è catalizzata sul contenuto della cassa, 

Jones tenta di rovesciare la situazione a suo favore, ma Mac lo ostacola, rivelando di essere al soldo dei Russi................

 
STORYLINE:

During the Cold War, Soviet agents watch Professor Henry Jones when a young man brings him a coded message from an aged, demented colleague, Henry Oxley. Led by the brilliant Irina Spalko, 

the Soviets tail Jones and the young man, Mutt, to Peru. With Oxley's code, they find a legendary skull made of a single piece of quartz. If Jones can deliver the skull to its rightful 

place, all may be well; but if Irina takes it to its origin, she'll gain powers that could endanger the West. Aging professor and young buck join forces with a woman from Jones's past to 

face the dangers of the jungle, Russia, and the supernatural.......................


[IMG]image[/IMG]


General
Complete name : Indiana Jones and the Kingdom of the Crystal Skull (2008).avi
Format : AVI
Format/Info : Audio Video Interleave
File size : 1.80 GiB
Duration : 1h 57mn
Overall bit rate : 2 196 Kbps
Writing application : FairUse Wizard 
Writing library : The best and REALLY easy backup tool

Video
ID : 0
Format : MPEG-4 Visual
Format profile : Advanced Simple@L5
Format settings, BVOP : Yes
Format settings, QPel : No
Format settings, GMC : No warppoints
Format settings, Matrix : Default (H.263)
Muxing mode : Packed bitstream
Codec ID : XVID
Codec ID/Hint : XviD
Duration : 1h 57mn
Bit rate : 1 285 Kbps
Width : 704 pixels
Height : 288 pixels
Display aspect ratio : 2.40:1
Frame rate : 25.000 fps
Color space : YUV
Chroma subsampling : 4:2:0
Bit depth : 8 bits
Scan type : Progressive
Bits/(Pixel*Frame) : 0.254
Stream size : 1.06 GiB (59%)
Writing library : XviD 1.2.0.dev47 (UTC 2006-11-01)

Audio #1
ID : 1
Format : AC-3
Format/Info : Audio Coding 3
Mode extension : CM (complete main)
Codec ID : 2000
Duration : 1h 57mn
Bit rate mode : Constant
Bit rate : 448 Kbps
Channel(s) : 6 channels
Channel positions : Front: L C R, Side: L R, LFE
Sampling rate : 48.0 KHz
Bit depth : 16 bits
Stream size : 377 MiB (20%)
Alignment : Split accross interleaves
Interleave, duration : 40 ms (1.00 video frame)
Interleave, preload duration : 500 ms

Audio #2
ID : 2
Format : AC-3
Format/Info : Audio Coding 3
Mode extension : CM (complete main)
Codec ID : 2000
Duration : 1h 57mn
Bit rate mode : Constant
Bit rate : 448 Kbps
Channel(s) : 6 channels
Channel positions : Front: L C R, Side: L R, LFE
Sampling rate : 48.0 KHz
Bit depth : 16 bits
Stream size : 377 MiB (20%)
Alignment : Split accross interleaves
Interleave, duration : 40 ms (1.00 video frame)
Interleave, preload duration : 500 ms

[/color]

Indiana Jones e il Regno del Teschio di Cristallo - Indiana Jones and the Kingdom of the Crystal Skull (2008).avi 1.936 GB
Indiana Jones e il Regno del Teschio di Cristallo - Indiana Jones and the Kingdom of the Crystal Skull (2008).idx 52.161 KB
Indiana Jones e il Regno del Teschio di Cristallo - Indiana Jones and the Kingdom of the Crystal Skull (2008).sub 3.07 MB
Gathering some info...

Register and log in Isohunt and see no captcha anymore!

4000 symbols left
Hash 49987BB63B82FFC64FFC1EAA59C989D5087A6A91

Related torrents for "Indiana Jones and the Kingdom of the Crystal Skull - Indiana Jones e il Regno del Teschio di Cristallo (2008) [XviD - Italian English Ac3 - Sub Ita]MIRCrew [TNT Village]"

Torrent search:

italian english 2008