imdb
rating

7.8
Hart Of Dixie

Hart Of Dixie (2011)

Comedy, Drama, Romance/Dating

Full description

Hart of Dixie S01E03 WEB-DL XviD-RoR [Lektor PL]

Size 575.67 MB   0 seeders     Added 2013-01-09 00:42:17

Stream torrent
Starting‥ You need BitLord! Get it from BitLord.com
To download or stream you need BitLord. Visit them at BitLord.com
 Tytuł: ..:: Hart of Dixie ::..

Produkcja: USA
Gatunek: Komedia, Dramat
Data premiery: 02.10.2012 - season 2
Reżyseria: Jason Ensler, David Paymer
Zdjęcia: Robert Gantz
Muzyka: Jeremy Adelman
Stacja telewizyjna: The CW
Czas trwania odcinka: 60 min.
http://www.filmweb.pl/serial/Hart+Of+Dixie-2011-616115
http://www.cwtv.com/shows/hart-of-dixie
Napisy PL: http://grupahatak.pl/ oraz: http://napisy24.pl/katalog/

Zoe Hart, mieszkanka Nowego Jorku i świeżo upieczona pani doktor, wszystko sobie poukładała. Po ukończeniu studiów medycznych chce podążyć śladami ojca i zostać kardiochirurgiem, jak on. Ale gdy jej marzenia się rozpadają, Zoe decyduje się przyjąć propozycję nieznajomego, Dra Harleya Wilkesa, żeby prowadzić z nim praktykę w Bluebell w Alabamie. Przybywszy na miejsce dziewczyna dowiaduje się, że Harley umarł i zapisał jej połowę swojej firmy w testamencie.

O B S A D A:

Rachel Bilson... Zoe Hart
Jaime King... Lemon Breeland
Scott Porter... George Tucker
Nancy Travis... Emmeline "Pani H" Hattenbarger
Cress Williams... Lavon Hayes

Hart.of.Dixie.S01E03.Gumbo.and.Glory.WEB-DL.XviD-RoR [Lektor PL].avi

Format : AVI
Format/Info : Audio Video Interleave
File size : 549 MiB
Duration : 41mn 59s
Overall bit rate : 1 828 Kbps
Writing application : VirtualDubMod 1.5.10.2 (build 2542/release)
Writing library : VirtualDubMod build 2542/release

Video
ID : 0
Format : MPEG-4 Visual
Format profile : Advanced Simple@L5
Format settings, BVOP : 1
Format settings, QPel : No
Format settings, GMC : No warppoints
Format settings, Matrix : Default (H.263)
Muxing mode : Packed bitstream
Codec ID : XVID
Codec ID/Hint : XviD
Duration : 41mn 59s
Bit rate : 1 626 Kbps
Width : 720 pixels
Height : 400 pixels
Display aspect ratio : 16:9
Frame rate : 23.976 fps
Color space : YUV
Chroma subsampling : 4:2:0
Bit depth : 8 bits
Scan type : Progressive
Compression mode : Lossy
Bits/(Pixel*Frame) : 0.235
Stream size : 488 MiB (89%)
Writing library : XviD 64

Audio
ID : 1
Format : AC-3
Format/Info : Audio Coding 3
Mode extension : CM (complete main)
Format settings, Endianness : Big
Codec ID : 2000
Duration : 41mn 59s
Bit rate mode : Constant
Bit rate : 192 Kbps
Channel(s) : 2 channels
Channel positions : Front: L R
Sampling rate : 48.0 KHz
Bit depth : 16 bits
Compression mode : Lossy
Stream size : 57.7 MiB (11%)
Alignment : Split accross interleaves
Interleave, duration : 42 ms (1.00 video frame)
Interleave, preload duration : 500 ms [u][u][/u][/u]
Hart.of.Dixie.S01E03.Gumbo.and.Glory.WEB-DL.XviD-RoR [Lektor PL].avi 575.67 MB
Gathering some info...

Register and log in Isohunt and see no captcha anymore!

4000 symbols left
Hash 5C63320A8393A4EFE0ACD58C4DB85748522AFD40

Related torrents for "Hart of Dixie S01E03 WEB-DL XviD-RoR [Lektor PL]"

Torrent search:

season 01 episode 03 web-dl