Indiana Jones - Bonus Disk of Quadrology (2008) [XviD - English Ac3 - Sub Ita] Contenuti Speciali MIRCrew

Size 2.172 GB   15 seeders     Added 2013-01-09 01:00:51

Stream torrent
Starting‥ You need BitLord! Get it from 1BitLord.com
To download or stream you need BitLord. Visit them at BitLord.com
Indiana Jones - Bonus Disk of Quadrology (2008) [XviD - English Ac3 - Sub Ita] Contenuti Speciali MIRCrew



[color=#990000][center][URL=http://forum.tntvillage.scambioetico.org/index.php?showforum=513][IMG]image[/IMG][/URL]

Indiana Jones - Bonus Disk of Quadrology

155 minuti di contenuti speciali

[URL=http://www.imdb.com/title/tt0367882/][IMG]image[/IMG][/URL]

COLLEZIONE COFANETTO 5 DVD

[IMG]image[/IMG]

Henry Walton Jones Jr., meglio noto come Indiana Jones, è un personaggio cinematografico ideato da George Lucas, un archeologo protagonista di una serie di quattro film d'avventura scritti da Lucas e diretti da Steven Spielberg e di una serie televisiva. Il suo ruolo è stato interpretato sul grande schermo dall'attore Harrison Ford.

[IMG]image[/IMG]


IN QUESTA RELEASE

Indiana Jones Bonus Disk - contenuti speciali

[IMG]image[/IMG]

[IMG]image[/IMG]

[IMG]image[/IMG] [IMG]image[/IMG]

[IMG]image[/IMG]

 Harrison Ford: Indiana Jones
 Shia LaBeouf: Mutt Williams/Henry Jones III
 Cate Blanchett: Irina Spalko
 Ray Winstone: "Mac" George McHale
 Karen Allen: Marion Ravenwood
 John Hurt: Harold Oxley
 Jim Broadbent: Charles Stanforth
 Igor Jijikine: Col. Dovchenko

Doppiatori italiani

 Michele Gammino: Indiana Jones
 Andrea Mete: Mutt Williams
 Emanuela Rossi: Irina Spalko
 Francesco Pannofino: "Mac" George McHale
 Chiara Salerno: Marion Ravenwood
 Dario Penne: Harold Oxley
 Ugo Maria Morosi: Charles Stanforth
 Carlo Scipioni: Col. Dovchenko

[IMG]image[/IMG] [IMG]image[/IMG]

[IMG]image[/IMG]

Nato il 1º luglio 1899, Indiana Jones è un brillante professore universitario di archeologia che in varie occasioni veste i panni dell'avventuriero partendo per i luoghi più esotici della terra alla ricerca di reperti straordinari; grande è la sua fama di avventuriero/archeologo, infatti nel corso dei film molte persone che si trovano in vari luoghi del mondo sembrano conoscere bene il "Dottor Jones".

Il nome completo di Indiana Jones è - come si apprende nel terzo film Indiana Jones e l'ultima crociata - Henry Walton Jones Junior (Henry Jones Senior è il padre, a sua volta famoso archeologo). L'archeologo tuttavia non sopporta l'essere chiamato col proprio vero nome. Il soprannome di "Indiana" nella finzione deriva dal nome del cane che aveva quando era ragazzino (mentre nella realtà era quello del cane di George Lucas).

Il personaggio ha i requisiti dell'eroe dalla doppia vita, dato che veste i panni del rispettabile e pacato professore di archeologia durante le lezioni al college, per lasciare posto all'occorrenza all'alter ego di Indiana Jones, cacciatore di tesori che gira il mondo alla ricerca di eccezionali reperti e sempre nuove sfide. Non è tuttavia un eroe dotato di poteri sovrumani e non è privo di difetti (ad esempio ha una fobia per i serpenti). Il regista Spielberg volle conferire al personaggio una personalità a tratti infantile, per far sì che potesse risultare meno monotono quando veste i panni del professore e per le varie sfumature del suo carattere che lo rappresentano: romantico e cinico con atteggiamenti che ricordano quelli di un lupo solitario, cacciatore di tesori, detective incallito, eroe umano e patriota americano. Il personaggio di Indiana Jones rispecchia alcuni aspetti autobiografici del regista, come il fatto di non avere avuto una figura paterna al proprio fianco, sviluppando così un rapporto conflittuale con il padre Henry Jones Senior (interpretato da Sean Connery nel terzo film della serie)..............

 
[u]STORYLINE:[/u]

Dr. Henry Walton "Indiana" Jones, Jr.[10] is a title character and the protagonist of the Indiana Jones franchise. George Lucas and Steven Spielberg created the character in homage to the action heroes of 1930s film serials. The character first appeared in the 1981 film Raiders of the Lost Ark, to be followed by Indiana Jones and the Temple of Doom in 1984, Indiana Jones and the Last Crusade in 1989, The Young Indiana Jones Chronicles from 1992 to 1996, and Indiana Jones and the Kingdom of the Crystal Skull in 2008. Alongside the more widely known films and television programs, the character is also featured in novels, comics, video games, and other media. Jones is also featured in the Disney theme park attraction Indiana Jones Adventure, which exists in similar forms at Disneyland and Tokyo DisneySea.

Jones is most famously played by Harrison Ford and has also been portrayed by River Phoenix (as the young Jones in The Last Crusade), and in the television series The Young Indiana Jones Chronicles by Corey Carrier, Sean Patrick Flanery, and George Hall. Doug Lee has supplied Jones's voice to two LucasArts video games, Indiana Jones and the Fate of Atlantis and Indiana Jones and the Infernal Machine, while David Esch supplied his voice to Indiana Jones and the Emperor's Tomb and John Armstrong in Indiana Jones and the Staff of Kings....................

[IMG]image[/IMG]

[IMG]image[/IMG]

[IMG]image[/IMG]

[spoiler] Bonus Film 1-2-3
General
Complete name : Indiana Jones - Bonus Disk English Sub Italian MIRCrew\Indiana Jones - Bonus Disk.avi
Format : AVI
Format/Info : Audio Video Interleave
File size : 1.56 GiB
Duration : 2h 7mn
Overall bit rate : 1 757 Kbps
Writing application : VirtualDubMod 1.5.4.1 (build 2178/release)
Writing library : VirtualDubMod build 2178/release

Video
ID : 0
Format : MPEG-4 Visual
Format profile : Advanced Simple@L5
Format settings, BVOP : Yes
Format settings, QPel : No
Format settings, GMC : No warppoints
Format settings, Matrix : Custom
Codec ID : XVID
Codec ID/Hint : XviD
Duration : 2h 7mn
Bit rate : 1 558 Kbps
Width : 608 pixels
Height : 464 pixels
Display aspect ratio : 4:3
Frame rate : 25.000 fps
Color space : YUV
Chroma subsampling : 4:2:0
Bit depth : 8 bits
Scan type : Progressive
Bits/(Pixel*Frame) : 0.221
Stream size : 1.38 GiB (89%)
Writing library : XviD 1.2.1 (UTC 2008-12-04)

Audio
ID : 1
Format : AC-3
Format/Info : Audio Coding 3
Format profile : Dolby Digital
Mode extension : CM (complete main)
Codec ID : 2000
Duration : 2h 7mn
Bit rate mode : Constant
Bit rate : 192 Kbps
Channel(s) : 2 channels
Channel positions : Front: L R
Sampling rate : 48.0 KHz
Bit depth : 16 bits
Stream size : 174 MiB (11%)
Alignment : Aligned on interleaves
Interleave, duration : 96 ms (2.40 video frames)
Interleave, preload duration : 96 ms
Language : English
[/spoiler]

[spoiler] Bonus Film 4
General
Complete name : F:\Indiana Jones - Bonus Disk English Sub Italian MIRCrew\Indiana Jones Bonus Disk Movie 4.avi
Format : AVI
Format/Info : Audio Video Interleave
File size : 299 MiB
Duration : 17mn 36s
Overall bit rate : 2 377 Kbps
Writing application : VirtualDubMod 1.5.4.1 (build 2178/release)
Writing library : VirtualDubMod build 2178/release

Video
ID : 0
Format : MPEG-4 Visual
Format profile : Advanced Simple@L5
Format settings, BVOP : Yes
Format settings, QPel : No
Format settings, GMC : No warppoints
Format settings, Matrix : Custom
Codec ID : XVID
Codec ID/Hint : XviD
Duration : 17mn 36s
Bit rate : 2 179 Kbps
Width : 720 pixels
Height : 400 pixels
Display aspect ratio : 16:9
Frame rate : 25.000 fps
Color space : YUV
Chroma subsampling : 4:2:0
Bit depth : 8 bits
Scan type : Progressive
Bits/(Pixel*Frame) : 0.303
Stream size : 274 MiB (92%)
Writing library : XviD 1.2.1 (UTC 2008-12-04)

Audio
ID : 1
Format : AC-3
Format/Info : Audio Coding 3
Mode extension : CM (complete main)
Codec ID : 2000
Duration : 17mn 36s
Bit rate mode : Constant
Bit rate : 192 Kbps
Channel(s) : 2 channels
Channel positions : Front: L R
Sampling rate : 48.0 KHz
Bit depth : 16 bits
Stream size : 24.2 MiB (8%)
Alignment : Aligned on interleaves
Interleave, duration : 96 ms (2.40 video frames)
Interleave, preload duration : 96 ms
Language : English
[/spoiler]

[spoiler] Bonus Movie 4 - Pre Production
General
Complete name : F:\Indiana Jones - Bonus Disk English Sub Italian MIRCrew\Indiana Jones Bonus Disk Movie 4 - Pre Production.avi
Format : AVI
Format/Info : Audio Video Interleave
File size : 150 MiB
Duration : 11mn 46s
Overall bit rate : 1 777 Kbps
Writing application : VirtualDubMod 1.5.4.1 (build 2178/release)
Writing library : VirtualDubMod build 2178/release

Video
ID : 0
Format : MPEG-4 Visual
Format profile : Advanced Simple@L5
Format settings, BVOP : Yes
Format settings, QPel : No
Format settings, GMC : No warppoints
Format settings, Matrix : Custom
Codec ID : XVID
Codec ID/Hint : XviD
Duration : 11mn 46s
Bit rate : 1 578 Kbps
Width : 704 pixels
Height : 400 pixels
Display aspect ratio : 16:9
Frame rate : 25.000 fps
Color space : YUV
Chroma subsampling : 4:2:0
Bit depth : 8 bits
Scan type : Progressive
Bits/(Pixel*Frame) : 0.224
Stream size : 133 MiB (89%)
Writing library : XviD 1.2.1 (UTC 2008-12-04)

Audio
ID : 1
Format : AC-3
Format/Info : Audio Coding 3
Mode extension : CM (complete main)
Codec ID : 2000
Duration : 11mn 46s
Bit rate mode : Constant
Bit rate : 192 Kbps
Channel(s) : 2 channels
Channel positions : Front: L R
Sampling rate : 48.0 KHz
Bit depth : 16 bits
Stream size : 16.2 MiB (11%)
Alignment : Aligned on interleaves
Interleave, duration : 96 ms (2.40 video frames)
Interleave, preload duration : 96 ms
Language : English
[/spoiler]
[/color]
Indiana Jones - Bonus Disk.avi 1.674 GB
Indiana Jones - Bonus Disk.idx 173.197 KB
Indiana Jones - Bonus Disk.sub 18.248 MB
Gathering some info...

Register and log in Isohunt and see no captcha anymore!

4000 symbols left
Hash 0B21F23688E727BB3D9CA398DC549E76BB78D0DF