imdb
rating

5.3
The Line

The Line (2008)

Action, Crime, Drama, Thriller

Full description

Florida Georgia Line - Cruise [Music Video] 1080p [Sbyky]

Size 140.316 MB   26 seeders     Added 2013-01-09 03:40:29

Stream torrent
Starting‥ You need BitLord! Get it from 1BitLord.com
To download or stream you need BitLord. Visit them at BitLord.com
[IMG]image[/IMG]

General
Complete name                            : Florida Georgia Line - Cruise [Music Video] 1080p [Sbyky].mp4
Format                                   : MPEG-4
Format profile                           : Base Media / Version 2
Codec ID                                 : mp42
File size                                : 134 MiB
Duration                                 : 3mn 35s
Overall bit rate mode                    : Variable
Overall bit rate                         : 5 198 Kbps
Encoded date                             : UTC 2012-08-27 01:05:04
Tagged date                              : UTC 2012-08-27 01:05:04
gsst                                     : 0
gstd                                     : 216106
gssd                                     : BADC21FA2HH1357549791611552
gshh                                     :

Video
ID                                       : 1
Format                                   : AVC
Format/Info                              : Advanced Video Codec
Format profile                           : High@L4.0
Format settings, CABAC                   : Yes
Format settings, ReFrames                : 1 frame
Codec ID                                 : avc1
Codec ID/Info                            : Advanced Video Coding
Duration                                 : 3mn 35s
Bit rate                                 : 5 003 Kbps
Maximum bit rate                         : 9 118 Kbps
Width                                    : 1 920 pixels
Height                                   : 1 080 pixels
Display aspect ratio                     : 16:9
Frame rate mode                          : Constant
Frame rate                               : 23.976 fps
Color space                              : YUV
Chroma subsampling                       : 4:2:0
Bit depth                                : 8 bits
Scan type                                : Progressive
Bits/(Pixel*Frame)                       : 0.101
Stream size                              : 129 MiB (96%)
Tagged date                              : UTC 2012-08-27 01:05:04

Audio
ID                                       : 2
Format                                   : AAC
Format/Info                              : Advanced Audio Codec
Format profile                           : LC
Codec ID                                 : 40
Duration                                 : 3mn 35s
Bit rate mode                            : Variable
Bit rate                                 : 192 Kbps
Maximum bit rate                         : 201 Kbps
Channel(s)                               : 2 channels
Channel positions                        : Front: L R
Sampling rate                            : 44.1 KHz
Compression mode                         : Lossy
Stream size                              : 4.94 MiB (4%)
Title                                    : IsoMedia File Produced by Google, 5-11-2011
Encoded date                             : UTC 2012-08-27 01:05:04
Tagged date                              : UTC 2012-08-27 01:05:04

Shared By Sbyky
[IMG]image[/IMG]		
Florida Georgia Line - Cruise [Music Video] 1080p [Sbyky].mp4 140.316 MB
Gathering some info...

Register and log in Isohunt and see no captcha anymore!

4000 symbols left
Hash 43ADCDDFB144648B4762687B5912052DDA6C9A93

Related torrents for "Florida Georgia Line - Cruise [Music Video] 1080p [Sbyky]"

Torrent search:

fullhd