imdb
rating

5.3
The Line

The Line (2008)

Action, Crime, Drama, Thriller

Full description

Florida Georgia Line - Cruise [Music Video] 720p [Sbyky]

Size 74.078 MB   2 seeders     Added 2013-01-09 03:40:33

Stream torrent
Starting‥ You need BitLord! Get it from 1BitLord.com
To download or stream you need BitLord. Visit them at BitLord.com
[IMG]image[/IMG]

General
Complete name                            : Florida Georgia Line - Cruise [Music Video] 720p [Sbyky].mp4
Format                                   : MPEG-4
Format profile                           : Base Media / Version 2
Codec ID                                 : mp42
File size                                : 70.6 MiB
Duration                                 : 3mn 35s
Overall bit rate mode                    : Variable
Overall bit rate                         : 2 744 Kbps
Encoded date                             : UTC 2012-08-27 01:04:00
Tagged date                              : UTC 2012-08-27 01:04:00
gsst                                     : 0
gstd                                     : 216106
gssd                                     : BADC21FA2HH1357547197085128
gshh                                     :

Video
ID                                       : 1
Format                                   : AVC
Format/Info                              : Advanced Video Codec
Format profile                           : High@L3.1
Format settings, CABAC                   : Yes
Format settings, ReFrames                : 1 frame
Codec ID                                 : avc1
Codec ID/Info                            : Advanced Video Coding
Duration                                 : 3mn 35s
Bit rate                                 : 2 550 Kbps
Maximum bit rate                         : 5 365 Kbps
Width                                    : 1 280 pixels
Height                                   : 720 pixels
Display aspect ratio                     : 16:9
Frame rate mode                          : Constant
Frame rate                               : 23.976 fps
Color space                              : YUV
Chroma subsampling                       : 4:2:0
Bit depth                                : 8 bits
Scan type                                : Progressive
Bits/(Pixel*Frame)                       : 0.115
Stream size                              : 65.6 MiB (93%)
Tagged date                              : UTC 2012-08-27 01:04:01

Audio
ID                                       : 2
Format                                   : AAC
Format/Info                              : Advanced Audio Codec
Format profile                           : LC
Codec ID                                 : 40
Duration                                 : 3mn 35s
Bit rate mode                            : Variable
Bit rate                                 : 192 Kbps
Maximum bit rate                         : 201 Kbps
Channel(s)                               : 2 channels
Channel positions                        : Front: L R
Sampling rate                            : 44.1 KHz
Compression mode                         : Lossy
Stream size                              : 4.94 MiB (7%)
Title                                    : IsoMedia File Produced by Google, 5-11-2011
Encoded date                             : UTC 2012-08-27 01:04:01
Tagged date                              : UTC 2012-08-27 01:04:01

Shared By Sbyky
[IMG]image[/IMG]		
Florida Georgia Line - Cruise [Music Video] 720p [Sbyky].mp4 74.078 MB
Gathering some info...

Register and log in Isohunt and see no captcha anymore!

4000 symbols left
Hash DE64513324E92D256D6B36561ADE1911529B871C

Related torrents for "Florida Georgia Line - Cruise [Music Video] 720p [Sbyky]"

Torrent search:

hd