imdb
rating

 
Inferno

Inferno (2016)

Full description

Death Race 3 Inferno 2013 UNRATED WEBRip XViD AC3 - TODE

Size 728.228 MB   0 seeders     Added 2013-01-09 04:37:45

Stream torrent
Starting‥ You need BitLord! Get it from 1BitLord.com
To download or stream you need BitLord. Visit them at BitLord.com
  image

   
http://www.imdb.com/title/tt1988591/

Plot
Get ready for an explosive, action-fueled ride when hardened criminals race for their freedom in vicious new vehicles and face off in the ultimate blood sport in the all-new original feature DEATH RACE 3: INFERNO.
 
In this all-new original feature film based on the hit franchise, the popular Death Race is transported across the globe to the unforgiving and rugged terrain of South Africa where Frankenstein - the greatest Death Race driver of all time - takes on this ultimate challenge to not only save himself, but his pit crew, as well.




Director: 
Roel Reiné

 Writers: 
Tony Giglio (screenplay), Tony Giglio (story)
 
Stars:
 Danny Trejo, Ving Rhames and Dougray Scott

Genres:
 Action , Crime , Thriller 

Country:
USA 

Language:
English 

Format                                   : AVI
Format/Info                              : Audio Video Interleave
File size                                : 694 MiB
Duration                                 : 1h 45mn
Overall bit rate                         : 923 Kbps
Writing application                      : Lavf54.32.100

Video
ID                                       : 0
Format                                   : MPEG-4 Visual
Format profile                           : Simple@L3
Format settings, BVOP                    : No
Format settings, QPel                    : No
Format settings, GMC                     : No warppoints
Format settings, Matrix                  : Default (H.263)
Codec ID                                 : XVID
Codec ID/Hint                            : XviD
Duration                                 : 1h 45mn
Bit rate                                 : 848 Kbps
Width                                    : 640 pixels
Height                                   : 320 pixels
Display aspect ratio                     : 16:9
Frame rate                               : 23.976 fps
Color space                              : YUV
Chroma subsampling                       : 4:2:0
Bit depth                                : 8 bits
Scan type                                : Progressive
Compression mode                         : Lossy
Bits/(Pixel*Frame)                       : 0.173
Stream size                              : 638 MiB (92%)
Writing library                          : XviD 64

Audio
ID                                       : 1
Format                                   : AC-3
Format/Info                              : Audio Coding 3
Mode extension                           : CM (complete main)
Format settings, Endianness              : Big
Codec ID                                 : 2000
Duration                                 : 1h 45mn
Bit rate mode                            : Constant
Bit rate                                 : 64.0 Kbps
Channel(s)                               : 2 channels
Channel positions                        : Front: L R
Sampling rate                            : 48.0 KHz
Bit depth                                : 16 bits
Compression mode                         : Lossy
Stream size                              : 48.2 MiB (7%)
Alignment                                : Aligned on interleaves
Interleave, duration                     : 32 ms (0.77 video frame)
Title                                    : asd


 
image 
image 
image 
image		
Death Race 3 Inferno 2013 UNRATED WEBRip XViD AC3 - TODE.avi 728.228 MB
Gathering some info...

Register and log in Isohunt and see no captcha anymore!

4000 symbols left
Hash DCF53C64988390D1AAE3C9A0524DC3C9E1BCC345

Related torrents for "Death Race 3 Inferno 2013 UNRATED WEBRip XViD AC3 - TODE"

Torrent search:

web-rip 2013