imdb
rating

8.1
The Girls

The Girls (1961)

Comedy, Romance

Full description
quality   dvdrip cam

Girls Generation - I Got A Boy {M4A+MP4} (1080p) x264 [VX] [P2PD

Size 79.165 MB   18 seeders     Added 2013-01-09 13:53:45

Stream torrent
Starting‥ You need BitLord! Get it from 1BitLord.com
10
To download or stream you need BitLord. Visit them at BitLord.com
[img]image[/img]


[b]Girls Generation - I Got A Boy {M4A+MP4} (1080p) x264 [VX] [P2PDL][/b]


 1080p Full HD MP4 Video
 +
 128 Kbps/VBR M4A Audio

[code]General
Complete name : Girls' Generation - I Got A Boy (1080p) x264 [VX] [P2PDL].mp4
Format : MPEG-4
Format profile : Base Media / Version 2
Codec ID : mp42
File size : 70.0 MiB

Video
ID : 1
Format : AVC
Format/Info : Advanced Video Codec
Width : 1 920 pixels
Height : 1 080 pixels
Display aspect ratio : 16:9
Frame rate mode : Variable
Frame rate : 23.976 fps
Color space : YUV
Scan type : Progressive
Bits/(Pixel*Frame) : 0.036
Stream size : 65.2 MiB (93%)
Writing library : x264 core 128

Audio
ID : 2
Format : AAC
Format/Info : Advanced Audio Codec
Duration : 5mn 4s
Bit rate mode : Variable
Bit rate : 128 Kbps
Channel(s) : 2 channels
Channel positions : Front: L R
Sampling rate : 48.0 KHz
Stream size : 4.62 MiB (7%)

Subtitles : No[/code]

Screens:

[img]image[/img]
[img]image[/img]

Thumbs:

[img]image[/img]

------------------------------------------------------------------------

Notes:

* Recommended to use latest version VLC Media Player.
* Install shark007 codecs in case of any kind of problem in playback (For non-VLC Media Player users).
* Alternatively, install Core AVC codecs, the fastest decoder that there is coupled with Community Center Codec Pack and play on Windows Media Player Classic.

Greets to: VYTO, a2zRG, Stumpie1971, Sheychi, Caveman, Ash968, Neon, Masta, TorDigger and staff members at ExtraTorrent, TPB, H33T, KAT, 1337x, PublicHD, Ahashare, TorrentMafia, Limetorrents, BTScene, P2PDL, and all others

Encoder Notes: Looking For Early Access To Anything You Can Provide DVDScr, R5, DVDRips, BluRay, Direct Audio, Early Music
Releases, Seedboxes, Links, Dedicated Servers anything u can provide, Advance / Promo CDs/DVDs. If You Got anything to
offer contact me at "prg@hush.com"

[img]image[/img]

[URL=http://www.facebook.com/p2pdl][IMG]image[/IMG][/URL]
01 소녀시대 - I GOT A BOY.m4a 5.55 MB
Cover.jpg 201.168 KB
Girls' Generation - I Got A Boy (1080p) x264 [VX] [P2PDL].mp4 73.404 MB
Gathering some info...

Register and log in Isohunt and see no captcha anymore!

4000 symbols left
Hash 080733D490DE9F8B7E797CA926FD755598B019B5

Related torrents for "Girls Generation - I Got A Boy {M4A+MP4} (1080p) x264 [VX] [P2PD"

Torrent search:

x264 fullhd