Once Upon A Time S02E06 WEB-DL XviD-RoR [Lektor PL]

Size 366.352 MB   0 seeders     Added 2013-01-09 23:41:40

Stream torrent
Starting‥ You need BitLord! Get it from BitLord.com
To download or stream you need BitLord. Visit them at BitLord.com
Tytuł: ..:: Once Upon a Time ::..

Produkcja: USA
Gatunek: Fantasy, Dramat
Data premiery: 30.09.2012 - season 2
Reżyseria: Mark Mylod, David Solomon
Zdjęcia: Steven Fierberg, Stephen Jackson
Muzyka: Mark Isham
Stacja telewizyjna: ABC
Czas trwania odcinka: 45 min.
http://www.filmweb.pl/serial/Once+Upon+a+Time-2011-603904
http://beta.abc.go.com/shows/once-upon-a-time
Napisy PL: http://grupahatak.pl/ oraz: http://napisy24.pl/katalog/

Serial przedstawia historię Anny Swan, u której drzwi pojawia się pewnego dnia tajemniczy chłopiec. Malec, który utrzymuje, że jest jej synem, prowadzi ją do magicznego świata, gdzie bajkowe opowieści stają się rzeczywistością.

O B S A D A:

Jennifer Morrison ... Emma Swan
Ginnifer Goodwin ... Królewna Śnieżka / Mary Margaret Blanchard
Robert Carlyle ... Rumplestiltskin / Pan Gold
Josh Dallas ... Królewicz / David Nolan
Lana Parrilla ... Zła Królowa / Regina Mills
Raphael Sbarge ... Jiminy Cricket / Archie Hopper

Once.Upon.A.Time.S02E06.WEB-DL.XviD-RoR [Lektor PL].avi

Format : AVI
Format/Info : Audio Video Interleave
File size : 349 MiB
Duration : 41mn 28s
Overall bit rate : 1 178 Kbps
Writing application : VirtualDubMod 1.5.10.2 (build 2540/release)
Writing library : VirtualDubMod build 2540/release

Video
ID : 0
Format : MPEG-4 Visual
Format profile : Advanced Simple@L5
Format settings, BVOP : 2
Format settings, QPel : No
Format settings, GMC : No warppoints
Format settings, Matrix : Default (H.263)
Muxing mode : Packed bitstream
Codec ID : XVID
Codec ID/Hint : XviD
Duration : 41mn 28s
Bit rate : 1 040 Kbps
Width : 624 pixels
Height : 352 pixels
Display aspect ratio : 16:9
Frame rate : 25.000 fps
Color space : YUV
Chroma subsampling : 4:2:0
Bit depth : 8 bits
Scan type : Progressive
Compression mode : Lossy
Bits/(Pixel*Frame) : 0.189
Stream size : 309 MiB (88%)
Writing library : XviD 64

Audio
ID : 1
Format : MPEG Audio
Format version : Version 1
Format profile : Layer 3
Codec ID : 55
Codec ID/Hint : MP3
Duration : 41mn 28s
Bit rate mode : Constant
Bit rate : 128 Kbps
Channel(s) : 2 channels
Sampling rate : 48.0 KHz
Compression mode : Lossy
Stream size : 38.0 MiB (11%)
Alignment : Aligned on interleaves
Interleave, duration : 40 ms (1.00 video frame)
Interleave, preload duration : 504 ms
Once.Upon.A.Time.S02E06.WEB-DL.XviD-RoR [Lektor PL].avi 366.352 MB
Gathering some info...

Register and log in Isohunt and see no captcha anymore!

4000 symbols left
Hash F13700259CA4FFA8D56803F58A7D52D7E41593EE

Related torrents for "Once Upon A Time S02E06 WEB-DL XviD-RoR [Lektor PL]"

Torrent search:

season 02 episode 06 web-dl