imdb
rating

6.1
6 Bullets

6 Bullets (2012)

Action, Thriller

Full description
quality   h264 dvdrip dvdr hd bd

6 Bullets 2012 DVDRip English [EngSub][Accipiter]

Size 725.707 MB   17 seeders     Added 2013-01-10 03:54:54

Stream torrent
Starting‥ You need BitLord! Get it from 1BitLord.com
To download or stream you need BitLord. Visit them at BitLord.com

Release info:

General
Format                                   : Matroska
Format version                           : Version 2
File size                                : 692 MiB
Duration                                 : 1h 54mn
Overall bit rate                         : 843 Kbps

Video
ID                                       : 1
Format                                   : MPEG-4 Visual
Format profile                           : Advanced Simple@L5
Format settings, BVOP                    : Yes
Format settings, QPel                    : No
Format settings, GMC                     : No warppoints
Format settings, Matrix                  : Default (H.263)
Codec ID                                 : V_MS/VFW/FOURCC / XVID
Codec ID/Hint                            : XviD
Duration                                 : 1h 54mn
Bit rate                                 : 699 Kbps
Width                                    : 640 pixels
Height                                   : 352 pixels
Display aspect ratio                     : 16:9
Frame rate mode                          : Constant
Frame rate                               : 23.976 fps
Color space                              : YUV
Chroma subsampling                       : 4:2:0
Bit depth                                : 8 bits
Scan type                                : Progressive
Compression mode                         : Lossy
Bits/(Pixel*Frame)                       : 0.129
Stream size                              : 573 MiB (83%)
Writing library                          : XviD 64
Language                                 : English
Default                                  : Yes
Forced                                   : No

Audio
ID                                       : 2
Format                                   : MPEG Audio
Format version                           : Version 1
Format profile                           : Layer 3
Mode                                     : Joint stereo
Mode extension                           : MS Stereo
Muxing mode                              : Header stripping
Codec ID                                 : A_MPEG/L3
Codec ID/Hint                            : MP3
Duration                                 : 1h 54mn
Bit rate mode                            : Constant
Bit rate                                 : 128 Kbps
Channel(s)                               : 2 channels
Sampling rate                            : 48.0 KHz
Compression mode                         : Lossy
Stream size                              : 105 MiB (15%)
Language                                 : English
Default                                  : Yes
Forced                                   : No

Text
ID                                       : 3
Format                                   : UTF-8
Codec ID                                 : S_TEXT/UTF8
Codec ID/Info                            : UTF-8 Plain Text
Language                                 : English
Default                                  : Yes
Forced                                   : No



Source:
credit to original movie ripper  (Thanks)

IMDB Info:

An ex-mercenary known for finding missing children is hired by a mixed martial arts fighter whose daughter has been kidnapped.

Director: Ernie Barbarash
Writers: Chad Law, Evan Law
Stars: Jean-Claude Van Damme, Joe Flanigan and Anna-Louise Plowman

Ratings: 6.1/10 from 4,252 users

Genres: Action | Crime | Thriller
 
http://www.imdb.com/title/tt1975249

Screen Shot:
 
image 
image 
image 
image 
image 
image		
6 Bullets 2012 DVDRip English [EngSub][Accipiter].mkv 725.706 MB
Torrent Downloaded From Digtorrent.org.txt 346 B
Torrent downloaded from souravfile torrents on BTScene.eu.txt 69 B
Gathering some info...

Register and log in Isohunt and see no captcha anymore!

4000 symbols left
Hash C93519D359007F735B1FA7E3E6640A3747B93F7D

Related torrents for "6 Bullets 2012 DVDRip English [EngSub][Accipiter]"

Torrent search:

dvdrip english 2012