imdb
rating

6.1
The Waterboy

The Waterboy (1998)

Comedy

Full description
quality   bd hd dvdrip h264 fullhd

The WaterBoy~Dvdrip Avi (1998){lasty}

Size 895.837 MB   0 seeders     Added 2013-01-10 06:13:02

Stream torrent
Starting‥ You need BitLord! Get it from 1BitLord.com
To download or stream you need BitLord. Visit them at BitLord.com




INFO:

General
Complete name : water boy.avi
Format : AVI
Format/Info : Audio Video Interleave
File size : 854 MiB
Duration : 1h 26mn
Overall bit rate : 1 388 Kbps

Video
ID : 0
Format : AVC
Format/Info : Advanced Video Codec
Format profile : Main@L5.1
Format settings, CABAC : Yes
Format settings, ReFrames : 1 frame
Codec ID : H264
Duration : 1h 26mn
Bit rate : 1 187 Kbps
Width : 1 024 pixels
Height : 576 pixels
Display aspect ratio : 16:9
Frame rate : 25.000 fps
Color space : YUV
Chroma subsampling : 4:2:0
Bit depth : 8 bits
Scan type : Progressive
Bits/(Pixel*Frame) : 0.080
Stream size : 730 MiB (85%)

Audio
ID : 1
Format : MPEG Audio
Format version : Version 1
Format profile : Layer 3
Codec ID : 55
Codec ID/Hint : MP3
Duration : 1h 26mn
Bit rate mode : Constant
Bit rate : 192 Kbps
Channel(s) : 2 channels
Sampling rate : 44.1 KHz
Compression mode : Lossy
Stream size : 118 MiB (14%)
Alignment : Split accross interleaves
Interleave, duration : 40 ms (1.00 video frame)
Interleave, preload duration : 153 ms
















[/center]





CLICK HERE TO HAVE ALOOK AT MY OTHER TORRENTS IF YOU LIKED THIS TORRENT CLICK HERE TO LEAVE ME A REVIEW
water boy.avi 895.837 MB
Gathering some info...

Register and log in Isohunt and see no captcha anymore!

4000 symbols left
Hash 1B799409C9B4322BBB49A31C3AFB988E8FEEDCAD

Related torrents for "The WaterBoy~Dvdrip Avi (1998){lasty}"

Torrent search:

dvdrip 1998