imdb
rating

6.8
Taylor

Taylor

Full description
quality   hd h264 dvdrip fullhd

Taylor Swift - I Knew You Were Trouble [Music Video] 720p [Sbyky]

Size 54.653 MB   6 seeders     Added 2013-01-10 12:20:33

Stream torrent
Starting‥ You need BitLord! Get it from BitLord.com
To download or stream you need BitLord. Visit them at BitLord.com
 image

General
Complete name                            : Taylor Swift - I Knew You Were Trouble [Music Video] 720p [Sbyky].mp4
Format                                   : MPEG-4
Format profile                           : Base Media / Version 2
Codec ID                                 : mp42
File size                                : 52.1 MiB
Duration                                 : 5mn 57s
Overall bit rate mode                    : Variable
Overall bit rate                         : 1 223 Kbps
Encoded date                             : UTC 2012-12-12 01:48:42
Tagged date                              : UTC 2012-12-12 01:48:42
gsst                                     : 0
gstd                                     : 357516
gssd                                     : B4A7D00E4HH1357547295508909
gshh                                     :

Video
ID                                       : 1
Format                                   : AVC
Format/Info                              : Advanced Video Codec
Format profile                           : High@L3.1
Format settings, CABAC                   : Yes
Format settings, ReFrames                : 1 frame
Codec ID                                 : avc1
Codec ID/Info                            : Advanced Video Coding
Duration                                 : 5mn 57s
Bit rate                                 : 1 029 Kbps
Maximum bit rate                         : 3 089 Kbps
Width                                    : 1 280 pixels
Height                                   : 720 pixels
Display aspect ratio                     : 16:9
Frame rate mode                          : Constant
Frame rate                               : 23.976 fps
Color space                              : YUV
Chroma subsampling                       : 4:2:0
Bit depth                                : 8 bits
Scan type                                : Progressive
Bits/(Pixel*Frame)                       : 0.047
Stream size                              : 43.8 MiB (84%)
Tagged date                              : UTC 2012-12-12 01:48:43

Audio
ID                                       : 2
Format                                   : AAC
Format/Info                              : Advanced Audio Codec
Format profile                           : LC
Codec ID                                 : 40
Duration                                 : 5mn 57s
Bit rate mode                            : Variable
Bit rate                                 : 192 Kbps
Maximum bit rate                         : 203 Kbps
Channel(s)                               : 2 channels
Channel positions                        : Front: L R
Sampling rate                            : 44.1 KHz
Compression mode                         : Lossy
Stream size                              : 8.18 MiB (16%)
Title                                    : IsoMedia File Produced by Google, 5-11-2011
Encoded date                             : UTC 2012-12-12 01:48:42
Tagged date                              : UTC 2012-12-12 01:48:43

Shared By Sbyky 
image		
Taylor Swift - I Knew You Were Trouble [Music Video] 720p [Sbyky].mp4 54.653 MB
Gathering some info...

Register and log in Isohunt and see no captcha anymore!

4000 symbols left
Hash 29E95BEEA27E196CBBA5DA51AF9199D4B4AA6FE3

Related torrents for "Taylor Swift - I Knew You Were Trouble [Music Video] 720p [Sbyky]"

Torrent search:

hd