imdb
rating

6.8
Taylor

Taylor

Full description
quality   hd h264 dvdrip fullhd

Taylor Swift - I Knew You Were Trouble [Music Video] 1080p [Sbyky]

Size 102.018 MB   16 seeders     Added 2013-01-10 12:40:34

Stream torrent
Starting‥ You need BitLord! Get it from BitLord.com
To download or stream you need BitLord. Visit them at BitLord.com
 image]

General
Complete name                            : Taylor Swift - I Knew You Were Trouble [Music Video] 1080p [Sbyky].mp4
Format                                   : MPEG-4
Format profile                           : Base Media / Version 2
Codec ID                                 : mp42
File size                                : 97.3 MiB
Duration                                 : 5mn 57s
Overall bit rate mode                    : Variable
Overall bit rate                         : 2 284 Kbps
Encoded date                             : UTC 2012-12-12 01:49:01
Tagged date                              : UTC 2012-12-12 01:49:01
gsst                                     : 0
gstd                                     : 357516
gssd                                     : BADC237E4HH1357557187952388
gshh                                     :

Video
ID                                       : 1
Format                                   : AVC
Format/Info                              : Advanced Video Codec
Format profile                           : High@L4.0
Format settings, CABAC                   : Yes
Format settings, ReFrames                : 1 frame
Codec ID                                 : avc1
Codec ID/Info                            : Advanced Video Coding
Duration                                 : 5mn 57s
Bit rate                                 : 2 089 Kbps
Maximum bit rate                         : 4 398 Kbps
Width                                    : 1 920 pixels
Height                                   : 1 080 pixels
Display aspect ratio                     : 16:9
Frame rate mode                          : Constant
Frame rate                               : 23.976 fps
Color space                              : YUV
Chroma subsampling                       : 4:2:0
Bit depth                                : 8 bits
Scan type                                : Progressive
Bits/(Pixel*Frame)                       : 0.042
Stream size                              : 89.0 MiB (91%)
Tagged date                              : UTC 2012-12-12 01:49:02

Audio
ID                                       : 2
Format                                   : AAC
Format/Info                              : Advanced Audio Codec
Format profile                           : LC
Codec ID                                 : 40
Duration                                 : 5mn 57s
Bit rate mode                            : Variable
Bit rate                                 : 192 Kbps
Maximum bit rate                         : 203 Kbps
Channel(s)                               : 2 channels
Channel positions                        : Front: L R
Sampling rate                            : 44.1 KHz
Compression mode                         : Lossy
Stream size                              : 8.18 MiB (8%)
Title                                    : IsoMedia File Produced by Google, 5-11-2011
Encoded date                             : UTC 2012-12-12 01:49:02
Tagged date                              : UTC 2012-12-12 01:49:02

Shared By Sbyky 
image		
Taylor Swift - I Knew You Were Trouble [Music Video] 1080p [Sbyky].mp4 102.018 MB
Gathering some info...

Register and log in Isohunt and see no captcha anymore!

4000 symbols left
Hash C370F1BD79C764156A81F3C68B04A31DB52CF148

Related torrents for "Taylor Swift - I Knew You Were Trouble [Music Video] 1080p [Sbyky]"

Torrent search:

fullhd