imdb
rating

6.7
I Am Not A Hipster

I Am Not A Hipster (2013)

Drama

Full description
quality  

I am not a hipster avi

Size 841.345 MB   0 seeders     Added 2013-01-11 02:36:25

Stream torrent
Starting‥ You need BitLord! Get it from BitLord.com
To download or stream you need BitLord. Visit them at BitLord.com
Storyline

A young singer-songwriter with a growing local following wanders through his apathetic life. When his dad and three sisters show up to spread his mothers ashes, hes reminded of the part of himself he left back in Ohio and is forced to deal with the person hes become. I Am Not a Hipster, based in San Diegos indie music and art scene, features original song performances and explores what it means to be creative in the face of tragedy.





Complete name                            : I am not a hipster (2013) TS XviD SLiCK.avi
Format                                   : AVI
Format/Info                              : Audio Video Interleave
File size                                : 802 MB
Duration                                 : 91 Minutes
Overall bit rate                         : 923 Kbps
Writing library                          : VirtualDub build 32842/release



ID                                       : 0
Format                                   : MPEG-4 Visual
Format profile                           : Advanced Simple@L5
Format settings, BVOP                    : 2
Format settings, QPel                    : No
Format settings, GMC                     : No warppoints
Format settings, Matrix                  : Default (H.263)
Muxing mode                              : Packed bitstream
Codec ID                                 : XVID
Codec ID/Hint                            : XviD
Duration                                 : 2h 4mn
Bit rate                                 : 785 Kbps
Width                                    : 720 pixels
Height                                   : 400 pixels
Display aspect ratio                     : 16:9
Frame rate                               : 25.000 fps
Color space                              : YUV
Chroma subsampling                       : 4:2:0
Bit depth                                : 8 bits
Scan type                                : Progressive
Compression mode                         : Lossy
Bits/(Pixel*Frame)                       : 0.109
Stream size                              : 699 MiB (85%)
Writing library                          : XviD 64



ID                                       : 1
Format                                   : MPEG Audio
Format version                           : Version 1
Format profile                           : Layer 3
Mode                                     : Joint stereo
Mode extension                           : MS Stereo
Codec ID                                 : 55
Codec ID/Hint                            : MP3
Duration                                 : 2h 4mn
Bit rate mode                            : Constant
Bit rate                                 : 128 Kbps
Channel(s)                               : 2 channels
Sampling rate                            : 44.1 KHz
Compression mode                         : Lossy
Stream size                              : 114 MiB (14%)
Alignment                                : Split accross interleaves
Interleave, duration                     : 40 ms (1.00 video frame)
Interleave, preload duration             : 500 ms
Writing library                          : LAME3.98r
Encoding settings                        : -m j -V 4 -q 3 -lowpass 17 -b 128-------------------------------------Torrent downloaded from http://thepiratebay.se
I am not a hipster.avi 841.345 MB
Gathering some info...

Register and log in Isohunt and see no captcha anymore!

4000 symbols left
Hash 6304C0D5074E5C32F8C7A9F04932D6A6EA693E82

Related torrents for "I am not a hipster avi"