imdb
rating

6.5
In the Land of Women

In the Land of Women (2007)

Comedy, Drama, Romance

Full description
quality   cam telesync bd dvdrip x264 hd

In.The.Land.Of.Women.2007.720p.BluRay.x264-SiNNERS

Size 4.694 GB   0 seeders     Added 2013-01-11 06:57:59

Stream torrent
Starting‥ You need BitLord! Get it from BitLord.com
To download or stream you need BitLord. Visit them at BitLord.com
Format                                   : Matroska
Format version                           : Version 1
File size                                : 4.37 GiB
Duration                                 : 1h 38mn
Overall bit rate                         : 6 382 Kbps
Encoded date                             : UTC 2007-12-12 18:15:34
Writing application                      : mkvmerge v2.1.0 ('Another Place To Fall') built on Aug 19 2007 13:40:07
Writing library                          : libebml v0.7.7 + libmatroska v0.8.1

Video
ID                                       : 1
Format                                   : AVC
Format/Info                              : Advanced Video Codec
Format profile                           : High@L5.1
Format settings, CABAC                   : Yes
Format settings, ReFrames                : 8 frames
Codec ID                                 : V_MPEG4/ISO/AVC
Duration                                 : 1h 38mn
Bit rate                                 : 4 870 Kbps
Width                                    : 1 280 pixels
Height                                   : 528 pixels
Display aspect ratio                     : 2.40:1
Frame rate mode                          : Constant
Frame rate                               : 23.976 fps
Color space                              : YUV
Chroma subsampling                       : 4:2:0
Bit depth                                : 8 bits
Scan type                                : Progressive
Bits/(Pixel*Frame)                       : 0.301
Stream size                              : 3.25 GiB (74%)
Language                                 : English
Default                                  : Yes
Forced                                   : No

Audio
ID                                       : 2
Format                                   : DTS
Format/Info                              : Digital Theater Systems
Mode                                     : 16
Format settings, Endianness              : Big
Codec ID                                 : A_DTS
Duration                                 : 1h 38mn
Bit rate mode                            : Constant
Bit rate                                 : 1 509 Kbps
Channel(s)                               : 6 channels
Channel positions                        : Front: L C R, Side: L R, LFE
Sampling rate                            : 48.0 KHz
Bit depth                                : 16 bits
Compression mode                         : Lossy
Stream size                              : 1.03 GiB (24%)
Default                                  : Yes
Forced                                   : No

Thumbnails: 
image		
In.The.Land.Of.Women.2007.720p.BluRay.x264-SiNNERS.mkv 4.694 GB
Gathering some info...

Register and log in Isohunt and see no captcha anymore!

4000 symbols left
Hash 0108D06ED70DF67ACBBB389C3EF1AF718B838630

Related torrents for "In.The.Land.Of.Women.2007.720p.BluRay.x264-SiNNERS"

Torrent search:

x264 2007 hd bd