Chainsaw avi

Size 1.497 GB   2 seeders     Added 2013-01-11 07:35:48

Stream torrent
Starting‥ You need BitLord! Get it from BitLord.com
To download or stream you need BitLord. Visit them at BitLord.com
 
http://www.imdb.com/title/tt1572315/


General
Complete name                    : Texas Chainsaw 2013 CAM XViD 
Format                           : AVI
Format/Info                      : Audio Video Interleave
File size                        : 1.39 GiB
Duration                         : 1h 26mn
Overall bit rate                 : 2 318 Kbps
Writing application              : VirtualDubMod 1.5.10.3 | www.virtualdub-fr.org || (build 2550/release)
Writing library                  : VirtualDubMod build 2550/release

Video
ID                               : 0
Format                           : MPEG-4 Visual
Format profile                   : Advanced Simple@L5
Format settings, BVOP            : 2
Format settings, QPel            : No
Format settings, GMC             : No warppoints
Format settings, Matrix          : Default (H.263)
Muxing mode                      : Packed bitstream
Codec ID                         : XVID
Codec ID/Hint                    : XviD
Duration                         : 1h 26mn
Bit rate                         : 2 114 Kbps
Width                            : 682 pixels
Height                           : 284 pixels
Display aspect ratio             : 2.40:1
Frame rate                       : 29.970 fps
Color space                      : YUV
Chroma subsampling               : 4:2:0
Bit depth                        : 8 bits
Scan type                        : Progressive
Compression mode                 : Lossy
Bits/(Pixel*Frame)               : 0.364
Stream size                      : 1.27 GiB (91%)
Writing library                  : XviD 64

Audio
ID                               : 1
Format                           : AC-3
Format/Info                      : Audio Coding 3
Mode extension                   : CM (complete main)
Codec ID                         : 2000
Duration                         : 1h 26mn
Bit rate mode                    : Constant
Bit rate                         : 192 Kbps
Channel(s)                       : 2 channels
Channel positions                : Front: L R
Sampling rate                    : 48.0 KHz
Bit depth                        : 16 bits
Compression mode                 : Lossy
Stream size                      : 118 MiB (8%)
Alignment                        : Aligned on interleaves
Interleave, duration             : 33 ms (1.00 video frame)
Interleave, preload duration     : 512 ms


Screenshot:
 
http://bayimg.com/eAImmaaeg 
http://bayimg.com/EAimnaAeG 
http://bayimg.com/eaimOaaEG 
http://bayimg.com/EAImpaAEg 
http://bayimg.com/fAimBaAeg 
http://bayimg.com/FaImcaaeG


M   7/10  Good Cam

A   7/10  Good cam-audio   

		
Chainsaw.avi 1.497 GB
Gathering some info...

Register and log in Isohunt and see no captcha anymore!

4000 symbols left
Hash 53EEA0AF5120ADD162CA571B342FC977AF6CAC8E

Related torrents for "Chainsaw avi"