imdb
rating

7.9
Ashes and Diamonds

Ashes and Diamonds (1958)

Drama

Full description
quality   dvdrip x264 fullhd hd bd

Rihanna - Diamonds [Music Video] 720p [Sbyky]

Size 62.389 MB   11 seeders     Added 2013-01-11 17:00:53

Stream torrent
Starting‥ You need BitLord! Get it from 1BitLord.com
To download or stream you need BitLord. Visit them at BitLord.com
 image

General
Complete name                            : Rihanna - Diamonds [Music Video] 720p [Sbyky].mp4
Format                                   : MPEG-4
Format profile                           : Base Media / Version 2
Codec ID                                 : mp42
File size                                : 59.5 MiB
Duration                                 : 4mn 42s
Overall bit rate mode                    : Variable
Overall bit rate                         : 1 765 Kbps
Encoded date                             : UTC 2012-11-07 16:28:14
Tagged date                              : UTC 2012-11-07 16:28:14
gsst                                     : 0
gstd                                     : 282958
gssd                                     : BADC21FA5HH1357547842768749
gshh                                     :

Video
ID                                       : 1
Format                                   : AVC
Format/Info                              : Advanced Video Codec
Format profile                           : High@L3.1
Format settings, CABAC                   : Yes
Format settings, ReFrames                : 1 frame
Codec ID                                 : avc1
Codec ID/Info                            : Advanced Video Coding
Duration                                 : 4mn 42s
Bit rate                                 : 1 570 Kbps
Maximum bit rate                         : 7 226 Kbps
Width                                    : 1 280 pixels
Height                                   : 720 pixels
Display aspect ratio                     : 16:9
Frame rate mode                          : Constant
Frame rate                               : 23.976 fps
Color space                              : YUV
Chroma subsampling                       : 4:2:0
Bit depth                                : 8 bits
Scan type                                : Progressive
Bits/(Pixel*Frame)                       : 0.071
Stream size                              : 52.9 MiB (89%)
Tagged date                              : UTC 2012-11-07 16:28:15

Audio
ID                                       : 2
Format                                   : AAC
Format/Info                              : Advanced Audio Codec
Format profile                           : LC
Codec ID                                 : 40
Duration                                 : 4mn 42s
Bit rate mode                            : Variable
Bit rate                                 : 192 Kbps
Maximum bit rate                         : 201 Kbps
Channel(s)                               : 2 channels
Channel positions                        : Front: L R
Sampling rate                            : 44.1 KHz
Compression mode                         : Lossy
Stream size                              : 6.47 MiB (11%)
Title                                    : IsoMedia File Produced by Google, 5-11-2011
Encoded date                             : UTC 2012-11-07 16:28:15
Tagged date                              : UTC 2012-11-07 16:28:15

Shared By Sbyky 
image		
Rihanna - Diamonds [Music Video] 720p [Sbyky].mp4 62.389 MB
Gathering some info...

Register and log in Isohunt and see no captcha anymore!

4000 symbols left
Hash 3C7ED6EA986DDA9E586DF33942D0C00C87DC9095

Related torrents for "Rihanna - Diamonds [Music Video] 720p [Sbyky]"

Torrent search:

hd