imdb
rating

7.8
Silver Linings Playbook

Silver Linings Playbook (2012)

Comedy, Drama, Romance

Full description

Silver Linings Playbook 2012 DVDscr XVID AC3-BHRG Verified

Size 1.444 GB   53 seeders     Added 2013-01-12 00:00:30

Stream torrent
Starting‥ You need BitLord! Get it from 1BitLord.com
10
To download or stream you need BitLord. Visit them at BitLord.com
Silver Linings Playbook 2012 DVDSCR XVID AC3-BHRG


source---EDAW2013 thx

 
http://www.imdb.com/title/tt1045658/


After a stint in a mental institution, former teacher Pat Solitano moves back in 
with his parents and tries to reconcile with his ex-wife. Things get more 
challenging when Pat meets Tiffany, a mysterious girl with problems of her own.


Format                                   : AVI
Format/Info                              : Audio Video Interleave
File size                                : 1.33 GiB
Duration                                 : 2h 1mn
Overall bit rate                         : 1 567 Kbps
Writing library                          : VirtualDub build 30091/release

Video
ID                                       : 0
Format                                   : MPEG-4 Visual
Format profile                           : Advanced Simple@L5
Format settings, BVOP                    : 1
Format settings, QPel                    : No
Format settings, GMC                     : No warppoints
Format settings, Matrix                  : Default (H.263)
Muxing mode                              : Packed bitstream
Codec ID                                 : XVID
Codec ID/Hint                            : XviD
Duration                                 : 2h 1mn
Bit rate                                 : 1 299 Kbps
Width                                    : 720 pixels
Height                                   : 304 pixels
Display aspect ratio                     : 2.35:1
Frame rate                               : 29.970 fps
Color space                              : YUV
Chroma subsampling                       : 4:2:0
Bit depth                                : 8 bits
Scan type                                : Progressive
Compression mode                         : Lossy
Bits/(Pixel*Frame)                       : 0.198
Stream size                              : 1.11 GiB (83%)
Writing library                          : XviD 1.2.1 (UTC 2008-12-04)

Audio
ID                                       : 1
Format                                   : AC-3
Format/Info                              : Audio Coding 3
Mode extension                           : CM (complete main)
Format settings, Endianness              : Big
Codec ID                                 : 2000
Duration                                 : 2h 1mn
Bit rate mode                            : Constant
Bit rate                                 : 256 Kbps
Channel(s)                               : 2 channels
Channel positions                        : Front: L R
Sampling rate                            : 48.0 KHz
Bit depth                                : 16 bits
Compression mode                         : Lossy
Stream size                              : 223 MiB (16%)


Poster:

 
image


Screenshots:

 
image


SEED AND ENJOY!		
www.UsaBit.com.txt 0 B
Silver Linings Playbook 2012 DVDscr XVID AC3 BHRG.avi 1.433 GB
Silver Linings Playbook 2012 DVDscr XVID AC3 BHRG sample.avi 11.155 MB
Gathering some info...

Register and log in Isohunt and see no captcha anymore!

4000 symbols left
Hash 14902B8578A4DC089587E35E2F07FBC05A3FCAE9

Related torrents for "Silver Linings Playbook 2012 DVDscr XVID AC3-BHRG"

Torrent search:

screener 2012