imdb
rating

5.1
A Haunted House

A Haunted House (2013)

Comedy, Horror

Full description
quality   dvdrip h264 hd cam screener

A Haunted House 2013 DVDRip XVID-DEPRiVED

Size 719.5 MB   0 seeders     Added 2013-01-12 13:36:21

Stream torrent
Starting‥ You need BitLord! Get it from BitLord.com
To download or stream you need BitLord. Visit them at BitLord.com
A Haunted House.2013.DVDRip.XVID-DEPRiVED

General

Format : MPEG-PS
File size : 563 MiB
Duration : 1h 38mn
Overall bit rate mode : Variable
Overall bit rate : 850 Kbps
Video #224
ID : 224 (0xE0)
Format : MPEG Video
Format version : Version 2
Format profile : Main@Main
Format settings, BVOP : Yes
Format settings, Matrix : Default
Duration : 1h 38mn
Bit rate mode : Variable
Bit rate : 705 Kbps
Maximum bit rate : 9 672 Kbps
Width : 352 pixels
Height : 288 pixels
Display aspect ratio : 4:3
Frame rate : 25.000 fps
Standard : PAL
Color space : YUV
Chroma subsampling : 4:2:0
Bit depth : 8 bits
Scan type : Progressive
Compression mode : Lossy
Bits/(Pixel*Frame) : 0.278
Stream size : 799 MiB (83%)
Audio #192
ID : 192 (0xC0)
Format : MPEG Audio
Format version : Version 1
Format profile : Layer 2
Duration : 2h 38mn
Bit rate mode : Constant
Bit rate : 128 Kbps
Channel(s) : 2 channels
Sampling rate : 48.0 KHz
Compression mode : Lossy
Stream size : 145 MiB (15%)-------------------------------------Torrent downloaded from http://thepiratebay.se
A Haunted House.wmv 719.489 MB
info.nfo 5.215 KB
READ this before playing the Video.txt 5.748 KB
Gathering some info...

Register and log in Isohunt and see no captcha anymore!

4000 symbols left
Hash 45378ADFE476BCC0C2FD3680AB6B3C174B17F032

Related torrents for "A Haunted House 2013 DVDRip XVID-DEPRiVED"

Torrent search:

dvdrip 2013